Загрузить Adobe Flash Player
Как тут качать? :: Как встать на раздачу?

Скачать / Download torrent  
Хэш: a2209f5d2e12aea4088a899254bde2a961b4cd62
Добавлен: 1 июля 2012 в 17:27:36
Категория: Музыка » Концерты
Размер: 1.47 GB
Проверил: Маруся 8 августа 2012 в 19:02:19

Раздают: 0 Качают: 0

Эпидемия - В Трезвучиях Баллад [2012 г., Power Metal, DVDRip]

Страна: Россия
Жанр: Power Metal
Продолжительность: 01:29:19
Год выпуска: 2012 г.

Описание:
Новое концертное видео от отечественной Power Metal группы "Эпидемия", снятое 29 мая 2011 года в московском клубе "Точка".
Вы услышите старые и новые песни, зазвучавшие по новому в необычной акустической обработке, а также увидите гостей концерта: бывших участников группы.

Треклист:
01. Интро
02. Снова Быть С Тобой
03. Феникс
04. Жизнь В Сумерках
05. Я Молился На Тебя
06. Золотые Драконы
07. Час Испытания
08. Пройди Свой Путь
09. Страна Забвения
10. Время Выбора
11. Вечный Воитель
12. Вернись
13. Charmed By Eyelashes
14. В Неведомой Стране
15. Звон Монет
16. Взошла Луна
17. Всадник Из Льда
18. Исповедь Первого Бога
19. Хождение За Три Моря
20. Прощай, Мой Дом



Источник: http://rutracker.org/forum/viewtopic.php?t=4089408
Качество: DVDRip
Контейнер: MKV
Видео кодек: H.264
Аудио кодек: AC3
Видео: H.264, 720x400 (16:9), 2156 kbps, 25 fps
Аудио: AC3, 192 kbps, 48 kHz, 2 ch, 16 bit
Переход по главам: есть

Участники группы:
Вокал - Евгений Егоров
Гитара - Юрий Мелисов
Гитара - Илья Мамонтов
Гитара - Дмитрий Процко
Барабаны - Дмитрий Кривенков
Клавишные - Дмитрий Иванов
Гости концерта:
Бас-гитара - Иван Изотов
Вокал - Максим Самосват (10,11)
Гитара - Роман Захаров (14,19)


Общее
Уникальный идентификатор : 248889441010125637162252288550439810303 (0xBB3E5CDBC3605F219CCD7A4F6444F4FF)
Полное имя : C:\Users\Zelgadiss Graywords\Downloads\FromTorrents\Эпидемия - 2012 - В Трезвучиях Баллад.mkv
Формат : Matroska
Версия формата : Version 2
Размер файла : 1,47 Гбайт
Продолжительность : 1 ч. 29 м.
Общий поток : 2349 Кбит/сек
Дата кодирования : UTC 2012-06-10 19:28:10
Программа кодирования : mkvmerge v5.2.1 ('A Far Off Place') built on Jan 2 2012 23:21:10
Библиотека кодирования : libebml v1.2.3 + libmatroska v1.3.0
Видео
Идентификатор : 1
Формат : AVC
Формат/Информация : Advanced Video Codec
Профиль формата : High@L3.1
Параметр CABAC формата : Да
Параметр ReFrames формата : 8 кадров
Идентификатор кодека : V_MPEG4/ISO/AVC
Продолжительность : 1 ч. 29 м.
Битрейт : 2156 Кбит/сек
Ширина : 720 пикселей
Высота : 400 пикселей
Соотношение сторон : 16:9
Частота кадров : 25,000 кадров/сек
Цветовое пространство : YUV
Субдискретизация насыщенности : 4:2:0
Битовая глубина : 8 бит
Тип развёртки : Прогрессивная
Бит/(Пиксели*Кадры) : 0.299
Размер потока : 1,32 Гбайт (90%)
Библиотека кодирования : x264 core 120 r2164 da19765
Настройки программы : cabac=1 / ref=8 / deblock=1:-1:-1 / analyse=0x3:0x113 / me=umh / subme=6 / psy=1 / psy_rd=1.00:0.00 / mixed_ref=1 / me_range=16 / chroma_me=1 / trellis=2 / 8x8dct=1 / cqm=0 / deadzone=21,11 / fast_pskip=0 / chroma_qp_offset=-2 / threads=3 / sliced_threads=0 / nr=0 / decimate=1 / interlaced=0 / bluray_compat=0 / constrained_intra=0 / bframes=3 / b_pyramid=0 / b_adapt=2 / b_bias=0 / direct=3 / weightb=1 / open_gop=0 / weightp=2 / keyint=250 / keyint_min=25 / scenecut=40 / intra_refresh=0 / rc_lookahead=40 / rc=2pass / mbtree=1 / bitrate=2156 / ratetol=1.0 / qcomp=0.60 / qpmin=10 / qpmax=51 / qpstep=4 / cplxblur=20.0 / qblur=0.5 / vbv_maxrate=17500 / vbv_bufsize=14000 / nal_hrd=none / ip_ratio=1.40 / aq=1:1.00
Язык : English
Default : Да
Forced : Нет
Аудио
Идентификатор : 2
Формат : AC-3
Формат/Информация : Audio Coding 3
Расширение режима : CM (complete main)
Параметр Endianness формата : Big
Идентификатор кодека : A_AC3
Продолжительность : 1 ч. 29 м.
Вид битрейта : Постоянный
Битрейт : 192 Кбит/сек
Каналы : 2 канала
Расположение каналов : Front: L R
Частота : 48,0 КГц
Битовая глубина : 16 бит
Метод сжатия : С потерями
Размер потока : 123 Мбайт (8%)
Заголовок : AC3, 192 kbps, 16 bit, 2 ch
Язык : Russian
Default : Да
Forced : Нет
Меню
00:00:00.000 : en:01. Интро
00:02:26.400 : en:02. Снова Быть С Тобой
00:07:10.560 : en:03. Феникс
00:10:07.200 : en:04. Жизнь В Сумерках
00:14:45.600 : en:05. Я Молился На Тебя
00:19:54.720 : en:06. Золотые Драконы
00:21:36.000 : en:07. Час Испытания
00:26:38.400 : en:08. Пройди Свой Путь
00:31:15.840 : en:09. Страна Забвения
00:35:25.440 : en:10. Время Выбора
00:39:19.200 : en:11. Вечный Воитель
00:43:33.600 : en:12. Вернись
00:48:25.920 : en:13. Charmed By Eyelashes
00:53:12.000 : en:14. В Неведомой Стране
00:58:14.880 : en:15. Звон Монет
01:01:36.000 : en:16. Взошла Луна
01:07:20.640 : en:17. Всадник Из Льда
01:13:05.760 : en:18. Исповедь Первого Бога
01:17:43.680 : en:19. Хождение За Три Моря
01:23:59.040 : en:20. Прощай, Мой Дом



Информация
Информация Скриншоты Пиры Скачавшие Список файлов
Залил Оценка Просмотров Скачан Файлов
Пастырь +10 623531

Теги
power metal

Похожие раздачи

Эпидемия - Сокровища Энии (2014) [Power Metal] MP3@320 kbps 146.19 MB

Эпидемия / Los últimos días (2013) BDRip 720p | Лицензия 4.25 GB

Эпидемия / Los últimos días (2013) HDRip | Лицензия 1.46 GB

Эпидемия / Los últimos días (2013) [Триллер, Приключения ] BDRip 1080p | VO + Spa + Sub {Eng} 9.00 GB

Brutal Death / Death Metal / Mental Dissection - Эпидемия Грязной Любви / 1997 / MP3 / 256 kbps 70.60 MB

Эпидемия - В трезвучиях баллад - 2012 [Power Metal] MP3@320 kbps 170.59 MB

Эпидемия - В Трезвучиях Баллад (2012) |Power Metal| MP3@320 kbps 171.75 MB

Эпидемия (Эльфийская рукопись) - Дискография (10 CD) (1995-2011) [Power] FLAC (image+.cue), Lossless 4.21 GB

Больше похожих раздач →

Список комментариев
Комментарии отсутствуют

Добавить комментарий
Внимание
Гости не могут оставлять комментарии, авторизуйтесь.

Панель навигации

ПОПУЛЯРНЫЕ РАЗДАЧИ
скачать торрент Пассажиры (2016) TSскачать торрент Доктор Стрэндж (2016) TS
скачать торрент Отряд самоубийц (2016) BDRip 1080p | Расширeнная версия | iTunesскачать торрент Плохой Санта 2 (2016) WEB-DLRip | iTunes
скачать торрент Первый мститель: Противостояние (2016) BDRip | IMAX Edition | iTunesскачать торрент Джейсон Борн (2016) HDTV 1080p | Чистый звук
скачать торрент Любовь не по размеру (2016) BDRip | Лицензияскачать торрент Глубоководный горизонт (2016) HDRip | iTunes
скачать торрент Волки и овцы: бе-е-е-зумное превращение (2016) WEB-DLRip | Лицензияскачать торрент Голограмма для короля (2016) HDRip | Лицензия

Будь с нами!


Наши друзья 



Информация, расположенная на данном сервере, предназначена исключительно для частного использования и не может быть загружена/перенесена на другой компьютер. Ни владелец сайта, ни хостинг-провайдер, ни любые другие физические или юридические лица не могут нести никакой отвественностиза любое использование материалов данного сайта.

© 2012-2017 TRACK.KG.