Скачать / Download torrent  
Добавлен: 2 февраля 2017 в 13:28:06
Категория: Фильмы » Зарубежные » Комедии / Пародийные
Размер: 912.72 MB
Проверил: АРХАНГЕЛ 2 февраля 2017 в 13:28:06

Раздают: 18 Качают: 14

7 дней в аду / 7 Days in Hell (2015) HDTVRip-AVC | P

pic

Информация о фильме
Название: 7 дней в аду
Оригинальное название: 7 Days in Hell
Год выхода: 2015
Жанр: комедия, спорт

Режиссер: Джейк Зиманский
В ролях: Энди Сэмберг, Кит Харингтон, Карен Гиллан, Майкл Шин, Мэри Стинберген, Лина Данэм, Уилл Форте, Серена Уильямс, Хоуи Мэндел, Фред Армисен

Слоган: «Эпические сражения за Эпичность»

О фильме: Вымышленная история о соперничестве между двумя теннисистами, которые сразились в 2004 году в матче, который длился семь дней.

Страна: США / Buss Company, The, Home Box Office (HBO)
Продолжительность: 00:41:55
Перевод: Профессиональный (многоголосый закадровый) [Amedia]

pic pic pic pic
pic
Файл
Качество: HDTVRip-AVC
Формат: MKV
Видео: AVC, 2500 Кбит/сек, 1024x576
Звук: Русский: AC3, 384 Кбит/сек (6 ch), Английский: AC3, 192 Кбит/сек (2 ch)
Субтитры: Английские

Format : Matroska
Format version : Version 4 / Version 2
File size : 913 Мбайт
Duration : 41 м.
Overall bit rate : 3043 Кбит/сек
Movie name : Rip by basma4i
Encoded date : UTC 2017-02-02 06:50:28
Writing application : mkvmerge v9.3.1 ('Mask Machine') 64bit
Writing library : libebml v1.3.4 + libmatroska v1.4.5 / XviD4PSP 6.0 / 54.29.105

Видео
ID : 1
Format : AVC
Format/Info : Advanced Video Codec
Format profile : Main@L4.1
Format settings, CABAC : Да
Format settings, ReFrames : 9 кадров
Codec ID : V_MPEG4/ISO/AVC
Duration : 41 м.
Bit rate : 2500 Кбит/сек
Width : 1024 пикселя
Height : 576 пикселей
Display aspect ratio : 16:9
Frame rate mode : Постоянный
Frame rate : 25,000 кадров/сек
Color space : YUV
Chroma subsampling : 4:2:0
Bit depth : 8 бит
Scan type : Прогрессивная
Bits/(Pixel*Frame) : 0.170
Stream size : 741 Мбайт (81%)
Writing library : x264 core 128 r2216M 198a7ea
Encoding settings : cabac=1 / ref=10 / deblock=1:-3:-3 / analyse=0x1:0x131 / me=umh / subme=11 / psy=1 / psy_rd=1.00:0.20 / mixed_ref=1 / me_range=32 / chroma_me=1 / trellis=2 / 8x8dct=0 / cqm=0 / deadzone=21,11 / fast_pskip=1 / chroma_qp_offset=-3 / threads=10 / lookahead_threads=1 / sliced_threads=0 / nr=0 / decimate=1 / interlaced=0 / bluray_compat=0 / constrained_intra=0 / bframes=8 / b_pyramid=1 / b_adapt=1 / b_bias=6 / direct=3 / weightb=1 / open_gop=0 / weightp=2 / keyint=250 / keyint_min=25 / scenecut=40 / intra_refresh=0 / rc_lookahead=40 / rc=2pass / mbtree=1 / bitrate=2500 / ratetol=1.0 / qcomp=0.60 / qpmin=10 / qpmax=51 / qpstep=4 / cplxblur=20.0 / qblur=0.5 / vbv_maxrate=62500 / vbv_bufsize=72500 / nal_hrd=none / ip_ratio=1.40 / aq=1:1.00
Language : English
Default : Да
Forced : Нет

Аудио #1
ID : 2
Format : AC-3
Format/Info : Audio Coding 3
Mode extension : CM (complete main)
Format settings, Endianness : Big
Codec ID : A_AC3
Duration : 41 м.
Bit rate mode : Постоянный
Bit rate : 384 Кбит/сек
Channel(s) : 6 каналов
Channel positions : Front: L C R, Side: L R, LFE
Sampling rate : 48,0 КГц
Frame rate : 31,250 кадров/сек (1536 spf)
Compression mode : С потерями
Stream size : 114 Мбайт (12%)
Title : Amedia
Language : Russian
Default : Да
Forced : Нет

Аудио #2
ID : 3
Format : AC-3
Format/Info : Audio Coding 3
Mode extension : CM (complete main)
Format settings, Endianness : Big
Codec ID : A_AC3
Duration : 41 м.
Bit rate mode : Постоянный
Bit rate : 192 Кбит/сек
Channel(s) : 2 канала
Channel positions : Front: L R
Sampling rate : 48,0 КГц
Frame rate : 31,250 кадров/сек (1536 spf)
Compression mode : С потерями
Delay relative to video : 27 мс.
Stream size : 56,9 Мбайт (6%)
Language : English
Default : Нет
Forced : Нет

Текст
ID : 4
Format : UTF-8
Codec ID : S_TEXT/UTF8
Codec ID/Info : UTF-8 Plain Text
Duration : 41 м.
Bit rate : 90 бит/сек
Count of elements : 695
Stream size : 27,6 Кбайт (0%)
Language : English
Default : Да
Forced : Нет



Релиз от: pic
pic


Информация
Информация Скриншоты Пиры Скачавшие Список файлов
Залил Оценка Просмотров Скачан Файлов
АРХАНГЕЛ 0 23961

Теги
комедия, спорт

Похожие раздачи

400 дней / 400 Days (2015) BDRip | P2 1.45 GB

Уязвимость нулевых дней (2016) WEB-DLRip 1.60 GB

Семь дней: Понедельник - Четверг / Seven Days: Monday - Thursday (2015) НDRip | L 1.36 GB

7 дней в аду / 7 Days in Hell (2015) HDTV 720p 1.71 GB

20 000 дней на Земле / 20,000 Days on Earth (2014) BDRip 1080p | SUB 7.00 GB

40 дней и 40 ночей / 40 Days and 40 Nights (2002) BDRip 1.45 GB

9 дней и одно утро (2014) DVDRip | лицензия 1.46 GB

3096 дней / 3096 Tage / 3096 Days (2013) BDRip 1080p 10.57 GB

3096 дней / 3096 Tage / 3096 Days (2013) BDRip 720p 6.99 GB

Черные мифы о Руси. От Ивана Грозного до наших дней (2013) [Документальный, история] SATRip 522.37 MB

Больше похожих раздач →

Список комментариев
Комментарии отсутствуют

Добавить комментарий
Внимание
Гости не могут оставлять комментарии, авторизуйтесь.

Панель навигации

ПОПУЛЯРНЫЕ РАЗДАЧИ
скачать торрент Пассажиры (2016) TSскачать торрент Отряд самоубийц (2016) BDRip 1080p | Расширeнная версия | iTunes
скачать торрент Плохой Санта 2 (2016) WEB-DLRip | iTunesскачать торрент Первый мститель: Противостояние (2016) BDRip | IMAX Edition | iTunes
скачать торрент Джейсон Борн (2016) HDTV 1080p | Чистый звукскачать торрент Любовь не по размеру (2016) BDRip | Лицензия
скачать торрент Глубоководный горизонт (2016) HDRip | iTunesскачать торрент Волки и овцы: бе-е-е-зумное превращение (2016) WEB-DLRip | Лицензия
скачать торрент Голограмма для короля (2016) HDRip | Лицензияскачать торрент День независимости: Возрождение (2016) BDRip | Лицензия

Будь с нами!


Наши друзья 



Информация, расположенная на данном сервере, предназначена исключительно для частного использования и не может быть загружена/перенесена на другой компьютер. Ни владелец сайта, ни хостинг-провайдер, ни любые другие физические или юридические лица не могут нести никакой отвественностиза любое использование материалов данного сайта.

© 2012-2017 TRACK.KG.