Загрузить Adobe Flash Player
Как тут качать? :: Как встать на раздачу?

Скачать / Download torrent  
Хэш: 4aff29224493ce15cbfa5b4b6335fa5b7f474422
Добавлен: 30 ноября 2016 в 17:52:51
Категория: Фильмы » Зарубежное кино » Комедии / Пародийные
Размер: 2.11 GB
Проверил: АРХАНГЕЛ 30 ноября 2016 в 17:52:51

Раздают: 100 Качают: 84

Миссия: Неадекватна / Army of One (2016) HDRip-AVC | L

pic

Информация о фильме
Название: Миссия: Неадекватна
Оригинальное название: Army of One
Год выхода: 2016
Жанр: комедия

Режиссер: Ларри Чарльз
В ролях: Николас Кейдж, Дэнис О’Хэр, Венди МакЛендон-Кови, Рэйн Уилсон, Расселл Брэнд, Фиона Врум, Уилл Сассо, Пол Шеер, Хилари Джардин, Адриан Мартинес

Слоган: «Дикая и безумная идея одного человека, как захватить Усамы бен Ладена»

О фильме: Абсолютно безумная и уморительная история обычного американского гражданина, который по поручению Всевышнего решает в одиночку поймать Усаму бен Ладена. Когда миру нужен герой, Гэри спешит на помощь!

Страна: США / Conde Nast Entertainment, Endgame Entertainment, Kasbah-Film Tanger
Продолжительность: 01:32:38
Перевод: Любительское (многоголосное закадровое) [Синема-УС]

pic pic pic pic
pic pic
Файл
Качество: HDRip-AVC
Формат: MKV
Видео: AVC, 2500 Kb/s, 1024x440
Звук: Russian: AC3, 384 Kb/s (2 ch), English: AC3, 384 Kb/s (6 ch)

Format : Matroska
Format version : Version 4 / Version 2
File size : 2.11 GiB
Duration : 1 h 32 min
Overall bit rate : 3 264 kb/s
Movie name : Rip by basma4i
Writing application : XviD4PSP 7.0.324 DAILY
Writing library : Lavf57.41.100 / Lavf57.41.100
Cover : Yes
Attachments : cover.jpg

Video
ID : 1
Format : AVC
Format/Info : Advanced Video Codec
Format profile : Main@L4.1
Format settings, CABAC : Yes
Format settings, ReFrames : 12 frames
Codec ID : V_MPEG4/ISO/AVC
Bit rate : 2 500 kb/s
Width : 1 024 pixels
Height : 440 pixels
Display aspect ratio : 2.35:1
Frame rate mode : Variable
Original frame rate : 23.976 FPS
Color space : YUV
Chroma subsampling : 4:2:0
Bit depth : 8 bits
Scan type : Progressive
Bits/(Pixel*Frame) : 0.231
Writing library : x264 core 148 r2721M 72d53ab
Encoding settings : cabac=1 / ref=12 / deblock=1:-3:-3 / analyse=0x1:0x131 / me=umh / subme=11 / psy=1 / psy_rd=1.00:0.20 / mixed_ref=1 / me_range=16 / chroma_me=1 / trellis=2 / 8x8dct=0 / cqm=0 / deadzone=21,11 / fast_pskip=1 / chroma_qp_offset=-3 / threads=11 / lookahead_threads=1 / sliced_threads=0 / nr=0 / decimate=0 / interlaced=0 / bluray_compat=0 / constrained_intra=0 / bframes=10 / b_pyramid=2 / b_adapt=1 / b_bias=8 / direct=3 / weightb=1 / open_gop=0 / weightp=2 / keyint=230 / keyint_min=23 / scenecut=40 / intra_refresh=0 / rc_lookahead=40 / rc=2pass / mbtree=1 / bitrate=2500 / ratetol=1.0 / qcomp=0.60 / qpmin=0 / qpmax=69 / qpstep=4 / cplxblur=20.0 / qblur=0.5 / vbv_maxrate=3000 / vbv_bufsize=50000 / nal_hrd=none / filler=0 / ip_ratio=1.40 / aq=1:1.00
Default : Yes
Forced : No
DURATION : 01:32:38.308000000

Audio #1
ID : 2
Format : AC-3
Format/Info : Audio Coding 3
Mode extension : CM (complete main)
Format settings, Endianness : Big
Codec ID : A_AC3
Duration : 1 h 32 min
Bit rate mode : Constant
Bit rate : 384 kb/s
Channel(s) : 2 channels
Channel positions : Front: L R
Sampling rate : 48.0 kHz
Frame rate : 31.250 FPS (1536 spf)
Bit depth : 32 bits
Compression mode : Lossy
Stream size : 254 MiB (12%)
Default : Yes
Forced : No
DURATION : 01:32:38.272000000

Audio #2
ID : 3
Format : AC-3
Format/Info : Audio Coding 3
Mode extension : CM (complete main)
Format settings, Endianness : Big
Codec ID : A_AC3
Duration : 1 h 32 min
Bit rate mode : Constant
Bit rate : 384 kb/s
Channel(s) : 6 channels
Channel positions : Front: L C R, Side: L R, LFE
Sampling rate : 48.0 kHz
Frame rate : 31.250 FPS (1536 spf)
Bit depth : 32 bits
Compression mode : Lossy
Stream size : 254 MiB (12%)
Default : No
Forced : No
DURATION : 01:32:38.272000000


Релиз от: pic
pic


Информация
Информация Скриншоты Пиры Скачавшие Список файлов
Залил Оценка Просмотров Скачан Файлов
АРХАНГЕЛ 0 143121

Теги
комедия

Похожие раздачи

Миссия в Майами / Ride Along 2 (2016) BDRip 1080p | Лицензия 10.29 GB

Миссия в Майами / Ride Along 2 (2016) BDRip 720p | Лицензия 4.49 GB

Миссия в Майами / Ride Along 2 (2016) BDRip | Лицензия 1.46 GB

Миссия в Майами / Ride Along 2 (2016) HDRip | iTunes 2.05 GB

Полицейский на подиуме / Детектив Ча: миссия «Подиум» / Runway Cop / Cha hyung-sa (2012) HDRip | L2 1.44 GB

Миссия невыполнима: Племя изгоев / Mission: Impossible - Rogue Nation (2015) BDRip 1080р | Лицензия 15.56 GB

Миссия невыполнима: Племя изгоев / Mission: Impossible - Rogue Nation (2015) BDRip 720p | Лицензия 9.61 GB

Миссия невыполнима: Племя изгоев / Mission: Impossible - Rogue Nation (2015) HDRip | Лицензия 1.46 GB

Миссия Одиссея / Mission Odyssey [01x01-08, 10-26 из 26] (2003) SATRip | P 9.23 GB

Пуаро: миссия выполнима. (Меняйлов) (2013) WEBRip 615.42 MB

Больше похожих раздач →

Список комментариев
Комментарии отсутствуют

Добавить комментарий
Внимание
Гости не могут оставлять комментарии, авторизуйтесь.

Панель навигации

ПОПУЛЯРНЫЕ РАЗДАЧИ
скачать торрент Ледокол (2016) WEB-DLRip | iTunesскачать торрент Доктор Стрэндж (2016) TS
скачать торрент Ледокол (2016) WEB-DL 1080p | iTunesскачать торрент Дуэлянт (2016) CAMRip
скачать торрент Отряд самоубийц (2016) BDRip 1080p | Расширeнная версия | iTunesскачать торрент Джейсон Борн (2016) HDTV 720p | Чистый звук
скачать торрент Первый мститель: Противостояние (2016) BDRip | IMAX Edition | iTunesскачать торрент Тарзан. Легенда (2016) HDRip | iTunes
скачать торрент Dark Souls 3: Deluxe Edition (2016) PC | RePack от xatabскачать торрент Люди Икс: Апокалипсис / X-Men: Apocalypse (2016) BDRip 720p | Лицензия

Будь с нами!


Наши друзья 



Информация, расположенная на данном сервере, предназначена исключительно для частного использования и не может быть загружена/перенесена на другой компьютер. Ни владелец сайта, ни хостинг-провайдер, ни любые другие физические или юридические лица не могут нести никакой отвественностиза любое использование материалов данного сайта.

© 2012-2016 TRACK.KG.