Загрузить Adobe Flash Player
Как тут качать? :: Как встать на раздачу?

Скачать / Download torrent  
Хэш: f1a1f005ffaa7a14faae9365f844298b8ae50227
Добавлен: 23 октября 2016 в 11:11:40
Категория: Фильмы » Фильмы HD / BD
Размер: 3.15 GB
Проверил: АРХАНГЕЛ 23 октября 2016 в 11:11:40

Раздают: 140 Качают: 176

Расхитители времени / Налётчики во времени / Time Raiders / Dao Mu Bi Ji (2016) WEB-DL 1080p | L2

pic

Информация о фильме
Название: Расхитители времени / Налётчики во времени
Оригинальное название: Time Raiders / Dao Mu Bi Ji
Год выхода: 2016
Жанр: мистика, приключения, фэнтези, экшн

Режиссер: Дэниел Ли
В ролях: Цзин Божань, Лухан, Ван Цзинчунь, Сандра Ма, Чжан Боюй, Джек Ту, Филип Кюн, Канин Нго, Фан Сюйши, Сэмми Хун, Малика Шерават, Ванни Корбеллини

О фильме: «Девять Семей» — тайное общество расхитителей гробниц, промышляющих черной археологией на протяжении многих столетий. Три семьи — аристократы и коллекционеры, три — торговцы и посредники, три — мастера кайла и лопаты, способные проникнуть в любой схрон.
ВУ Се, молодой наследник торговой династии У, с детства был очарован древними артефактами. Парень мечтал о приключениях, но воспитавший его дядя Саньшэн запретил ему участвовать в авантюрных поездках, полностью оставив на его попечение семейную лавку. Однажды в руки У Се попадает ключ к гробнице древнего мастера Железной Маски. Из его последних записок герой узнает местоположение в пустыне Гоби древнего города мифической Змеиной Царицы из сказочной страны Тамуто. Если верить легендам, царица постигла секрет вечной жизни. Будучи преданной, она обещала вернуться через 3000 лет, отомстить человечеству и покорить мир. И, кажется, это случится уже на следующей неделе.

Страна: Китай
Продолжительность: 02:03:41
Перевод: Любительский (двухголосый закадровый) [Studio Victory-Films]

pic pic pic pic
pic
Файл
Качество: WEB-DL 1080p
Формат: MKV
Видео: AVC, 3461 Kb/s, 1920x800
Звук: AC3, 192 Kb/s (2 ch)
Субтитры: Chinese, English (вшитые неотключаемые)

Format : Matroska
Format version : Version 4 / Version 2
File size : 3.15 GiB
Duration : 2 h 3 min
Overall bit rate : 3 647 kb/s
Movie name : Rip by basma4i
Encoded date : UTC 2016-10-23 03:28:40
Writing application : mkvmerge v9.3.1 ('Mask Machine') 64bit
Writing library : libebml v1.3.4 + libmatroska v1.4.5

Video
ID : 1
Format : AVC
Format/Info : Advanced Video Codec
Format profile : Main@L4.1
Format settings, CABAC : Yes
Format settings, ReFrames : 12 frames
Codec ID : V_MPEG4/ISO/AVC
Duration : 2 h 3 min
Bit rate : 3 461 kb/s
Width : 1 920 pixels
Height : 800 pixels
Display aspect ratio : 2.40:1
Frame rate mode : Constant
Frame rate : 24.000 FPS
Color space : YUV
Chroma subsampling : 4:2:0
Bit depth : 8 bits
Scan type : Progressive
Bits/(Pixel*Frame) : 0.094
Stream size : 2.98 GiB (95%)
Language : English
Default : Yes
Forced : No

Audio
ID : 2
Format : AC-3
Format/Info : Audio Coding 3
Mode extension : CM (complete main)
Format settings, Endianness : Big
Codec ID : A_AC3
Duration : 2 h 3 min
Bit rate mode : Constant
Bit rate : 192 kb/s
Channel(s) : 2 channels
Channel positions : Front: L R
Sampling rate : 44.1 kHz
Frame rate : 28.711 FPS (1536 spf)
Compression mode : Lossy
Stream size : 170 MiB (5%)
Title : Studio Victory-Films
Language : Russian
Default : Yes
Forced : No


Релиз от: pic
pic


Информация
Информация Скриншоты Пиры Скачавшие Список файлов
Залил Оценка Просмотров Скачан Файлов
АРХАНГЕЛ 0 275241

Теги
мистика, приключения, фэнтези, экшн

Похожие раздачи

Расхитители времени / Time Raiders / Dao Mu Bi Ji (2016) WEB-DLRip | L2 1.46 GB

Больше похожих раздач →

Список комментариев
Комментарии отсутствуют

Добавить комментарий
Внимание
Гости не могут оставлять комментарии, авторизуйтесь.

Панель навигации

ПОПУЛЯРНЫЕ РАЗДАЧИ
скачать торрент Пассажиры (2016) TSскачать торрент Доктор Стрэндж (2016) TS
скачать торрент Отряд самоубийц (2016) BDRip 1080p | Расширeнная версия | iTunesскачать торрент Плохой Санта 2 (2016) WEB-DLRip | iTunes
скачать торрент Первый мститель: Противостояние (2016) BDRip | IMAX Edition | iTunesскачать торрент Джейсон Борн (2016) HDTV 1080p | Чистый звук
скачать торрент Любовь не по размеру (2016) BDRip | Лицензияскачать торрент Глубоководный горизонт (2016) HDRip | iTunes
скачать торрент Волки и овцы: бе-е-е-зумное превращение (2016) WEB-DLRip | Лицензияскачать торрент Голограмма для короля (2016) HDRip | Лицензия

Будь с нами!


Наши друзья 



Информация, расположенная на данном сервере, предназначена исключительно для частного использования и не может быть загружена/перенесена на другой компьютер. Ни владелец сайта, ни хостинг-провайдер, ни любые другие физические или юридические лица не могут нести никакой отвественностиза любое использование материалов данного сайта.

© 2012-2017 TRACK.KG.