Загрузить Adobe Flash Player
Как тут качать? :: Как встать на раздачу?

Скачать / Download torrent  
Хэш: 50250b10f20075dddb29356a2f11d79ba904175b
Добавлен: 16 октября 2016 в 08:45:43
Категория: Фильмы » Зарубежное кино » Фантастика
Размер: 2.11 GB
Проверил: АРХАНГЕЛ 16 октября 2016 в 08:12:21

Раздают: 149 Качают: 37

Железная девушка: Убийственное оружие / Iron Girl: Ultimate Weapon (2015) BDRip-AVC | L2

pic

Информация о фильме
Название: Железная девушка: Убийственное оружие
Оригинальное название: Iron Girl: Ultimate Weapon
Год выхода: 2015
Жанр: боевик, фантастика, комедия

Режиссер: Кенити Фудзивара
В ролях: Асами, Кирара Асука, Хироаки Иванага, Рюносукэ Кавай, Асука Киши, Юри Моришита и др.

О фильме: В недалеком будущем, в мире царит беззаконие, человечество находится на грани вымирания, а города контролируют банды головорезов. Курису Саотоме — наемная убийца. Она носит бронированный костюм, обладающий большой силой. Курису Саотоме не помнит кто она и откуда приехала. Чтобы восстановить память, она продолжает свою одинокую борьбу, истребляя головорезов.

Страна: Япония / Shibuya Productions
Продолжительность: 01:24:04
Перевод: Любительский (двухголосый, закадровый) [DeadSno & den904]

pic pic pic pic
pic pic
Файл
Качество: BDRip-AVC (исх. Iron Girl Ultimate Weapon 2015 720p BluRay x264-WiKi)
Формат: MKV
Видео: AVC, 2700 Kb/s, 1024x576
Звук: Russian / Japanese AC3, 448 Kb/s (6 ch)
Субтитры: Russian, English
Дополнительно: Сохранены оригинальные главы (чаптеры)

Format : Matroska
Format version : Version 4 / Version 2
File size : 2.11 GiB
Duration : 1 h 24 min
Overall bit rate : 3 596 kb/s
Movie name : Rip by basma4i
Encoded date : UTC 2016-10-16 02:37:43
Writing application : mkvmerge v9.3.1 ('Mask Machine') 64bit
Writing library : libebml v1.3.4 + libmatroska v1.4.5 / Lavf57.41.100
Cover : Yes
Attachments : cover.jpg
ENCODING_INFO : MATROSKA,WEBM > MKV / H264 > X264 VBR-2P 2700kbps Произвольный / DTS > AC3 CBR 448kbps / AAC-LC > AC3 CBR 192kbps

Video
ID : 1
Format : AVC
Format/Info : Advanced Video Codec
Format profile : Main@L4.1
Format settings, CABAC : Yes
Format settings, ReFrames : 12 frames
Codec ID : V_MPEG4/ISO/AVC
Duration : 1 h 24 min
Bit rate : 2 700 kb/s
Width : 1 024 pixels
Height : 576 pixels
Display aspect ratio : 16:9
Frame rate mode : Variable
Frame rate : 23.976 FPS
Color space : YUV
Chroma subsampling : 4:2:0
Bit depth : 8 bits
Scan type : Progressive
Bits/(Pixel*Frame) : 0.191
Stream size : 1.58 GiB (75%)
Writing library : x264 core 148 r2721M 72d53ab
Encoding settings : cabac=1 / ref=12 / deblock=1:-3:-3 / analyse=0x1:0x131 / me=umh / subme=11 / psy=1 / psy_rd=1.00:0.20 / mixed_ref=1 / me_range=24 / chroma_me=1 / trellis=2 / 8x8dct=0 / cqm=0 / deadzone=21,11 / fast_pskip=1 / chroma_qp_offset=-3 / threads=11 / lookahead_threads=1 / sliced_threads=0 / nr=0 / decimate=0 / interlaced=0 / bluray_compat=0 / constrained_intra=0 / bframes=10 / b_pyramid=2 / b_adapt=1 / b_bias=8 / direct=3 / weightb=1 / open_gop=0 / weightp=2 / keyint=230 / keyint_min=23 / scenecut=40 / intra_refresh=0 / rc_lookahead=40 / rc=2pass / mbtree=1 / bitrate=2700 / ratetol=1.0 / qcomp=0.60 / qpmin=0 / qpmax=69 / qpstep=4 / cplxblur=20.0 / qblur=0.5 / vbv_maxrate=40000 / vbv_bufsize=62500 / nal_hrd=none / filler=0 / ip_ratio=1.40 / aq=1:1.00
Language : Japanese
Default : Yes
Forced : No
ENCODING_INFO : x264 - core 148 r2705 3f5ed56 - H.264/MPEG-4 AVC codec - Copyleft 2003-2016 - http://www.videolan.org/x264.html - options: cabac=1 ref=9 deblock=1:-3:-3 analyse=0x3:0x133 me=umh subme=11 psy=1 psy_rd=1.00:0.10 mixed_ref=1 me_range=48 chroma_me=1 trellis=2 8x8dct=1 cqm=0 deadzone=21,11 fast_pskip=0 chroma_qp_offset=-3 threads=12 lookahead_threads=3 sliced_threads=0 nr=0 decimate=1 interlaced=0 bluray_compat=0 constrained_intra=0 bframes=10 b_pyramid=2 b_adapt=2 b_bias=0 direct=3 weightb=1 open_gop=0 weightp=2 keyint=250 keyint_min=23 scenecut=40 intra_refresh=0 rc_lookahead=40 rc=2pass mbtree=0 bitrate=5500 ratetol=1.0 qcomp=0.60 qpmin=0 qpmax=69 qpstep=4 cplxblur=20.0 qblur=0.5 vbv_maxrate=50000 vbv_bufsize=62500 nal_hrd=none filler=0 ip_ratio=1.40 pb_ratio=1.30 aq=1:0.90

Audio #1
ID : 2
Format : AC-3
Format/Info : Audio Coding 3
Mode extension : CM (complete main)
Format settings, Endianness : Big
Codec ID : A_AC3
Duration : 1 h 24 min
Bit rate mode : Constant
Bit rate : 448 kb/s
Channel(s) : 6 channels
Channel positions : Front: L C R, Side: L R, LFE
Sampling rate : 48.0 kHz
Frame rate : 31.250 FPS (1536 spf)
Compression mode : Lossy
Stream size : 269 MiB (12%)
Title : DVO @ DeadSno & den904
Language : Russian
Default : Yes
Forced : No

Audio #2
ID : 3
Format : AC-3
Format/Info : Audio Coding 3
Mode extension : CM (complete main)
Format settings, Endianness : Big
Codec ID : A_AC3
Duration : 1 h 24 min
Bit rate mode : Constant
Bit rate : 448 kb/s
Channel(s) : 6 channels
Channel positions : Front: L C R, Side: L R, LFE
Sampling rate : 48.0 kHz
Frame rate : 31.250 FPS (1536 spf)
Compression mode : Lossy
Stream size : 269 MiB (12%)
Language : Japanese
Default : No
Forced : No

Text #1
ID : 4
Format : UTF-8
Codec ID : S_TEXT/UTF8
Codec ID/Info : UTF-8 Plain Text
Duration : 1 h 23 min
Bit rate : 55 b/s
Count of elements : 739
Stream size : 34.2 KiB (0%)
Title : Subtitle rus @ FSG Black pearl & FSG LD-Asia
Language : Russian
Default : Yes
Forced : No

Text #2
ID : 5
Format : UTF-8
Codec ID : S_TEXT/UTF8
Codec ID/Info : UTF-8 Plain Text
Duration : 1 h 23 min
Bit rate : 28 b/s
Count of elements : 716
Stream size : 17.6 KiB (0%)
Title : Subtitle eng
Language : English
Default : No
Forced : No

Menu
00:00:00.000 : :Глава 01
00:08:15.194 : :Глава 02
00:14:28.534 : :Глава 03
00:22:01.320 : :Глава 04
00:28:40.618 : :Глава 05
00:35:21.752 : :Глава 06
00:42:08.592 : :Глава 07
00:50:05.002 : :Глава 08
00:57:21.805 : :Глава 09
01:06:58.514 : :Глава 10
01:12:20.502 : :Глава 11
01:21:01.923 : :Глава 12


Релиз от: pic
pic


Информация
Информация Скриншоты Пиры Скачавшие Список файлов
Залил Оценка Просмотров Скачан Файлов
АРХАНГЕЛ 0 274251

Теги
боевик, фантастика, комедия

Похожие раздачи

Железная девушка / Aian Garu (2012) DVDRip | L1 1.31 GB

Больше похожих раздач →

Список комментариев
Комментарии отсутствуют

Добавить комментарий
Внимание
Гости не могут оставлять комментарии, авторизуйтесь.

Панель навигации

ПОПУЛЯРНЫЕ РАЗДАЧИ
скачать торрент Ледокол (2016) WEB-DLRip | iTunesскачать торрент Ледокол (2016) WEB-DL 1080p | iTunes
скачать торрент Дуэлянт (2016) CAMRipскачать торрент Отряд самоубийц (2016) BDRip 1080p | Расширeнная версия | iTunes
скачать торрент Джейсон Борн (2016) HDTV 720p | Чистый звукскачать торрент Первый мститель: Противостояние (2016) BDRip | IMAX Edition | iTunes
скачать торрент Тарзан. Легенда (2016) HDRip | iTunesскачать торрент Dark Souls 3: Deluxe Edition (2016) PC | RePack от xatab
скачать торрент Люди Икс: Апокалипсис / X-Men: Apocalypse (2016) BDRip 720p | Лицензияскачать торрент Полтора шпиона (2016) BDRip 1080p | Лицензия

Будь с нами!


Наши друзья 



Информация, расположенная на данном сервере, предназначена исключительно для частного использования и не может быть загружена/перенесена на другой компьютер. Ни владелец сайта, ни хостинг-провайдер, ни любые другие физические или юридические лица не могут нести никакой отвественностиза любое использование материалов данного сайта.

© 2012-2016 TRACK.KG.