Загрузить Adobe Flash Player
Как тут качать? :: Как встать на раздачу?

Скачать / Download torrent  
Хэш: 359090a49c479ae148f5248081450ab31a5ce823
Добавлен: 12 октября 2016 в 17:20:33
Категория: Фильмы » Фильмы HD / BD
Размер: 2.47 GB
Проверил: АРХАНГЕЛ 12 октября 2016 в 17:20:33

Раздают: 74 Качают: 14

Запретное удовольствие / Zakazane uvolneni (2014) WEB-DL 720p | L1

pic

Информация о фильме
Название: Запретное удовольствие
Оригинальное название: Zakazane uvolneni
Год выхода: 2014
Жанр: комедия

Режиссер: Ян Гржебейк
В ролях: Зузана Ставна, Яна Стрыкова, Хана Вагнерова, Ондрей Сокол, Igor Orozovic, Томаш Жерабек, Норберт Лихий, Даниэль Шпинар, Каролина Блажкова, Вацлав Эрбен.

О фильме: Безобидный обычай похищения невесты по капризу судьбы превращается в нечто несусветное.
Захолустная пивная пуста — идет чемпионат по хоккею, а телевизор неисправен. К тому же разражается страшная гроза, отрезая от мира невесту, свидетеля жениха и бармена. Все эти трое — женского пола, что само по себе любопытно. К их услугам целый бар спиртного, а спиртное, как известно, развязывает язык и не только.

Страна: Чехия / Frame100r, Love.FRAME
Продолжительность: 01:17:42
Перевод: Любительский (одноголосый закадровый) [Kass (женский голос)]

pic pic pic pic
pic
Файл
Качество: WEB-DL 720p
Формат: MKV
Видео: AVC, 3646 Kb/s, 1280x552
Звук: Russian / Czech: AC3, 448 Kb/s (6 ch)

Format : Matroska
Format version : Version 4 / Version 2
File size : 2.47 GiB
Duration : 1 h 17 min
Overall bit rate : 4 544 kb/s
Movie name : Rip by basma4i
Encoded date : UTC 2016-10-12 09:45:43
Writing application : mkvmerge v9.3.1 ('Mask Machine') 64bit
Writing library : libebml v1.3.4 + libmatroska v1.4.5

Video
ID : 1
Format : AVC
Format/Info : Advanced Video Codec
Format profile : High@L4.1
Format settings, CABAC : Yes
Format settings, ReFrames : 7 frames
Codec ID : V_MPEG4/ISO/AVC
Duration : 1 h 17 min
Bit rate : 3 646 kb/s
Width : 1 280 pixels
Height : 552 pixels
Display aspect ratio : 2.35:1
Frame rate mode : Constant
Frame rate : 25.000 FPS
Color space : YUV
Chroma subsampling : 4:2:0
Bit depth : 8 bits
Scan type : Progressive
Bits/(Pixel*Frame) : 0.206
Stream size : 1.98 GiB (80%)
Language : Chechen
Default : Yes
Forced : No

Audio #1
ID : 2
Format : AC-3
Format/Info : Audio Coding 3
Mode extension : CM (complete main)
Format settings, Endianness : Big
Codec ID : A_AC3
Duration : 1 h 17 min
Bit rate mode : Constant
Bit rate : 448 kb/s
Channel(s) : 6 channels
Channel positions : Front: L C R, Side: L R, LFE
Sampling rate : 48.0 kHz
Frame rate : 31.250 FPS (1536 spf)
Compression mode : Lossy
Stream size : 249 MiB (10%)
Title : Kass
Language : Russian
Default : Yes
Forced : No

Audio #2
ID : 3
Format : AC-3
Format/Info : Audio Coding 3
Mode extension : CM (complete main)
Format settings, Endianness : Big
Codec ID : A_AC3
Duration : 1 h 17 min
Bit rate mode : Constant
Bit rate : 448 kb/s
Channel(s) : 6 channels
Channel positions : Front: L C R, Side: L R, LFE
Sampling rate : 48.0 kHz
Frame rate : 31.250 FPS (1536 spf)
Compression mode : Lossy
Stream size : 249 MiB (10%)
Title : original
Language : Chechen
Default : No
Forced : No


Релиз от: pic
pic


Информация
Информация Скриншоты Пиры Скачавшие Список файлов
Залил Оценка Просмотров Скачан Файлов
АРХАНГЕЛ 0 181101

Теги
комедия

Похожие раздачи

Поиск не дал результатов.Больше похожих раздач →

Список комментариев
Комментарии отсутствуют

Добавить комментарий
Внимание
Гости не могут оставлять комментарии, авторизуйтесь.

Панель навигации

ПОПУЛЯРНЫЕ РАЗДАЧИ
скачать торрент Ледокол (2016) WEB-DLRip | iTunesскачать торрент Доктор Стрэндж (2016) TS
скачать торрент Ледокол (2016) WEB-DL 1080p | iTunesскачать торрент Дуэлянт (2016) CAMRip
скачать торрент Отряд самоубийц (2016) BDRip 1080p | Расширeнная версия | iTunesскачать торрент Джейсон Борн (2016) HDTV 720p | Чистый звук
скачать торрент Первый мститель: Противостояние (2016) BDRip | IMAX Edition | iTunesскачать торрент Тарзан. Легенда (2016) HDRip | iTunes
скачать торрент Dark Souls 3: Deluxe Edition (2016) PC | RePack от xatabскачать торрент Люди Икс: Апокалипсис / X-Men: Apocalypse (2016) BDRip 720p | Лицензия

Будь с нами!


Наши друзья 



Информация, расположенная на данном сервере, предназначена исключительно для частного использования и не может быть загружена/перенесена на другой компьютер. Ни владелец сайта, ни хостинг-провайдер, ни любые другие физические или юридические лица не могут нести никакой отвественностиза любое использование материалов данного сайта.

© 2012-2016 TRACK.KG.