Загрузить Adobe Flash Player
Как тут качать? :: Как встать на раздачу?

Скачать / Download torrent  
Хэш: 06876528734c8b1cdd8b336a877b1267fe145899
Добавлен: 23 сентября 2016 в 11:29:54
Категория: Фильмы » Фильмы HD / BD
Размер: 3.73 GB
Проверил: АРХАНГЕЛ 23 сентября 2016 в 11:29:54

Раздают: 53 Качают: 96

31: Праздник смерти / 31 (2016) WEB-DL 1080p | L1

pic

Информация о фильме
Название: 31: Праздник смерти
Оригинальное название: 31
Год выхода: 2016
Жанр: ужасы, триллер

Режиссер: Роб Зомби
В ролях: Шери Мун Зомби, Джеффри Дэниэл Филлипс, Лоуренс Хилтон-Джакобс, Мег Фостер, Кевин Джексон, Малкольм МакДауэлл, Джейн Карр, Джуди Гисон, Ричард Брэйк, Панчо Молер

О фильме: История пяти людей, которые были похищены за пять дней до Хэллоуина и оказались пленниками в сотворенном человеком аду. Там им предстоит сыграть на выживание в жестокой игре под названием «31».

Страна: США, Великобритания / Bow and Arrow Entertainment, Spectacle Entertainment Group, Windy Hill Pictures
Продолжительность: 01:43:10
Перевод: Любительский (одноголосый закадровый) [Xixidok]

pic pic pic pic
pic pic
Файл
Качество: WEB-DL 1080p
Формат: MKV
Видео: AVC, 4601 kb/s, 1908x788
Звук: Русский: MP3, 2 ch, 192 kb/s, Английский: AC3, 6 ch, 384 kb/s
Субтитры: Русские, английские
Дополнительно: Сохранены оригинальные главы (чаптеры)

Format : Matroska
Format version : Version 4 / Version 2
File size : 3.73 GiB
Duration : 1 h 43 min
Overall bit rate : 5 180 kb/s
Movie name : Rip by basma4i
Encoded date : UTC 2016-09-23 03:44:21
Writing application : mkvmerge v9.3.1 ('Mask Machine') 64bit
Writing library : libebml v1.3.4 + libmatroska v1.4.5
Cover : Yes
Attachments : cover_land.jpg / small_cover.jpg / small_cover_land.jpg / cover.jpg

Video
ID : 1
Format : AVC
Format/Info : Advanced Video Codec
Format profile : High@L4
Format settings, CABAC : Yes
Format settings, ReFrames : 5 frames
Codec ID : V_MPEG4/ISO/AVC
Duration : 1 h 43 min
Bit rate : 4 601 kb/s
Width : 1 908 pixels
Height : 788 pixels
Display aspect ratio : 2.40:1
Frame rate mode : Constant
Frame rate : 23.976 (24000/1001) FPS
Color space : YUV
Chroma subsampling : 4:2:0
Bit depth : 8 bits
Scan type : Progressive
Bits/(Pixel*Frame) : 0.128
Stream size : 3.32 GiB (89%)
Language : English
Default : Yes
Forced : No
Color range : Limited
Color primaries : BT.709
Transfer characteristics : BT.709
Matrix coefficients : BT.709

Audio #1
ID : 2
Format : MPEG Audio
Format version : Version 1
Format profile : Layer 3
Codec ID : A_MPEG/L3
Codec ID/Hint : MP3
Duration : 1 h 43 min
Bit rate mode : Constant
Bit rate : 192 kb/s
Channel(s) : 2 channels
Sampling rate : 44.1 kHz
Frame rate : 38.281 FPS (1152 spf)
Compression mode : Lossy
Stream size : 142 MiB (4%)
Title : Xixidok
Language : Russian
Default : No
Forced : No

Audio #2
ID : 3
Format : AC-3
Format/Info : Audio Coding 3
Mode extension : CM (complete main)
Format settings, Endianness : Big
Codec ID : A_AC3
Duration : 1 h 43 min
Bit rate mode : Constant
Bit rate : 384 kb/s
Channel(s) : 6 channels
Channel positions : Front: L C R, Side: L R, LFE
Sampling rate : 48.0 kHz
Frame rate : 31.250 FPS (1536 spf)
Compression mode : Lossy
Stream size : 283 MiB (7%)
Language : English
Default : Yes
Forced : No

Text #1
ID : 4
Format : UTF-8
Codec ID : S_TEXT/UTF8
Codec ID/Info : UTF-8 Plain Text
Duration : 1 h 32 min
Bit rate : 45 b/s
Count of elements : 949
Stream size : 30.8 KiB (0%)
Language : English
Default : Yes
Forced : No

Text #2
ID : 5
Format : UTF-8
Codec ID : S_TEXT/UTF8
Codec ID/Info : UTF-8 Plain Text
Duration : 1 h 36 min
Bit rate : 74 b/s
Count of elements : 950
Stream size : 52.6 KiB (0%)
Title : Russian (BadBajo)
Default : No
Forced : No

Menu
00:00:00.000 : en:1
00:11:12.000 : en:2
00:22:14.000 : en:3
00:31:11.000 : en:4
00:42:26.000 : en:5
00:51:45.000 : en:6
01:01:02.000 : en:7
01:11:29.000 : en:8
01:22:03.000 : en:9
01:29:20.000 : en:10
01:39:08.000 : en:11


Релиз от: pic
pic


Информация
Информация Скриншоты Пиры Скачавшие Список файлов
Залил Оценка Просмотров Скачан Файлов
АРХАНГЕЛ 0 4461291

Теги
ужасы, триллер

Похожие раздачи

Поиск не дал результатов.Больше похожих раздач →

Список комментариев
Комментарии отсутствуют

Добавить комментарий
Внимание
Гости не могут оставлять комментарии, авторизуйтесь.

Панель навигации

ПОПУЛЯРНЫЕ РАЗДАЧИ
скачать торрент Ледокол (2016) WEB-DLRip | iTunesскачать торрент Доктор Стрэндж (2016) TS
скачать торрент Ледокол (2016) WEB-DL 1080p | iTunesскачать торрент Дуэлянт (2016) CAMRip
скачать торрент Отряд самоубийц (2016) BDRip 1080p | Расширeнная версия | iTunesскачать торрент Джейсон Борн (2016) HDTV 720p | Чистый звук
скачать торрент Первый мститель: Противостояние (2016) BDRip | IMAX Edition | iTunesскачать торрент Тарзан. Легенда (2016) HDRip | iTunes
скачать торрент Dark Souls 3: Deluxe Edition (2016) PC | RePack от xatabскачать торрент Люди Икс: Апокалипсис / X-Men: Apocalypse (2016) BDRip 720p | Лицензия

Будь с нами!


Наши друзья 



Информация, расположенная на данном сервере, предназначена исключительно для частного использования и не может быть загружена/перенесена на другой компьютер. Ни владелец сайта, ни хостинг-провайдер, ни любые другие физические или юридические лица не могут нести никакой отвественностиза любое использование материалов данного сайта.

© 2012-2016 TRACK.KG.