Загрузить Adobe Flash Player
Как тут качать? :: Как встать на раздачу?

Скачать / Download torrent  
Хэш: 35bddc9e1474bf1e1e4f4bb3761a406866bba007
Добавлен: 16 сентября 2016 в 16:28:12
Категория: Фильмы » Зарубежное кино » Комедии / Пародийные
Размер: 2.42 GB
Проверил: АРХАНГЕЛ 16 сентября 2016 в 16:28:12

Раздают: 154 Качают: 77

Папашина армия / Dad's Army (2016) HDRip-AVC | Лицензия

pic

Информация о фильме
Название: Папашина армия
Оригинальное название: Dad's Army
Год выхода: 2016
Жанр: комедия, военный

Режиссер: Оливер Паркер
В ролях: Кэтрин Зета-Джонс, Билл Найи, Майкл Гэмбон, Тоби Джонс, Сара Ланкашир, Марк Гейтисс, Дэниэл Мейс, Элисон Стэдмен, Том Кортни, Блейк Харрисон

Слоган: «Британская империя наносит ответный удар»

О фильме: Англия. Вторая мировая война. Журналистка для освещения военных действий отправляется в прибрежный город, где располагается взвод, охраняющий побережье….

Страна: Великобритания / DJ Films
Продолжительность: 01:39:53
Перевод: Дублированный [Лицензия R5]

pic pic pic pic
pic
Файл
Качество: HDRip-AVC
Формат: MKV
Видео: AVC, 2700 Kb/s, 1024x428
Звук: Russian / English: AC3, 384 Kb/s (6 ch)
Субтитры: English
Дополнительно: Сохранены оригинальные главы (чаптеры)

Format : Matroska
Format version : Version 4 / Version 2
File size : 2.42 GiB
Duration : 1 h 39 min
Overall bit rate : 3 470 kb/s
Movie name : Rip by basma4i
Encoded date : UTC 2016-09-16 09:34:01
Writing application : mkvmerge v9.3.1 ('Mask Machine') 64bit
Writing library : libebml v1.3.4 + libmatroska v1.4.5 / Lavf57.41.100
Cover : Yes
Attachments : cover.jpg
ENCODING_INFO : MATROSKA,WEBM > MKV / H264 > X264 VBR-2P 2700kbps Произвольный / AC3 > AC3 CBR 384kbps / AC3 > AC3 CBR 384kbps

Video
ID : 1
Format : AVC
Format/Info : Advanced Video Codec
Format profile : Main@L4.1
Format settings, CABAC : Yes
Format settings, ReFrames : 11 frames
Codec ID : V_MPEG4/ISO/AVC
Duration : 1 h 39 min
Bit rate : 2 700 kb/s
Width : 1 024 pixels
Height : 428 pixels
Display aspect ratio : 2.40:1
Frame rate mode : Variable
Frame rate : 23.976 (23976/1000) FPS
Color space : YUV
Chroma subsampling : 4:2:0
Bit depth : 8 bits
Scan type : Progressive
Bits/(Pixel*Frame) : 0.257
Stream size : 1.88 GiB (78%)
Writing library : x264 core 148 r2705M 3f5ed56
Encoding settings : cabac=1 / ref=12 / deblock=1:-3:-3 / analyse=0x1:0x131 / me=umh / subme=11 / psy=1 / psy_rd=1.00:0.20 / mixed_ref=1 / me_range=48 / chroma_me=1 / trellis=2 / 8x8dct=0 / cqm=0 / deadzone=21,11 / fast_pskip=1 / chroma_qp_offset=-3 / threads=11 / lookahead_threads=1 / sliced_threads=0 / nr=0 / decimate=0 / interlaced=0 / bluray_compat=0 / constrained_intra=0 / bframes=10 / b_pyramid=1 / b_adapt=1 / b_bias=6 / direct=3 / weightb=1 / open_gop=0 / weightp=2 / keyint=230 / keyint_min=23 / scenecut=40 / intra_refresh=0 / rc_lookahead=40 / rc=2pass / mbtree=1 / bitrate=2700 / ratetol=1.0 / qcomp=0.60 / qpmin=0 / qpmax=69 / qpstep=4 / cplxblur=20.0 / qblur=0.5 / vbv_maxrate=35000 / vbv_bufsize=65000 / nal_hrd=none / filler=0 / ip_ratio=1.40 / aq=1:1.00
Language : English
Default : Yes
Forced : No
ENCODING_INFO : x264 - core 148 r2694 3b70645 - H.264/MPEG-4 AVC codec - Copyleft 2003-2016 - http://www.videolan.org/x264.html - options: cabac=1 ref=12 deblock=1:-3:-3 analyse=0x3:0x113 me=umh subme=11 psy=1 psy_rd=1.00:0.00 mixed_ref=1 me_range=48 chroma_me=1 trellis=2 8x8dct=1 cqm=0 deadzone=21,11 fast_pskip=0 chroma_qp_offset=-2 threads=8 lookahead_threads=1 sliced_threads=0 nr=0 decimate=1 interlaced=0 bluray_compat=0 constrained_intra=0 bframes=8 b_pyramid=2 b_adapt=1 b_bias=0 direct=1 weightb=1 open_gop=0 weightp=2 keyint=240 keyint_min=24 scenecut=40 intra_refresh=0 rc_lookahead=60 rc=2pass mbtree=1 bitrate=4258 ratetol=1.0 qcomp=0.60 qpmin=0 qpmax=69 qpstep=4 cplxblur=20.0 qblur=0.5 vbv_maxrate=50000 vbv_bufsize=25000 nal_hrd=none filler=0 ip_ratio=1.40 aq=1:1.00

Audio #1
ID : 2
Format : AC-3
Format/Info : Audio Coding 3
Mode extension : CM (complete main)
Format settings, Endianness : Big
Codec ID : A_AC3
Duration : 1 h 39 min
Bit rate mode : Constant
Bit rate : 384 kb/s
Channel(s) : 6 channels
Channel positions : Front: L C R, Side: L R, LFE
Sampling rate : 48.0 kHz
Frame rate : 31.250 FPS (1536 spf)
Compression mode : Lossy
Stream size : 274 MiB (11%)
Title : Dub [R5]
Language : Russian
Default : Yes
Forced : No

Audio #2
ID : 3
Format : AC-3
Format/Info : Audio Coding 3
Mode extension : CM (complete main)
Format settings, Endianness : Big
Codec ID : A_AC3
Duration : 1 h 39 min
Bit rate mode : Constant
Bit rate : 384 kb/s
Channel(s) : 6 channels
Channel positions : Front: L C R, Side: L R, LFE
Sampling rate : 48.0 kHz
Frame rate : 31.250 FPS (1536 spf)
Compression mode : Lossy
Stream size : 274 MiB (11%)
Title : Original
Language : English
Default : No
Forced : No

Text #1
ID : 4
Format : UTF-8
Codec ID : S_TEXT/UTF8
Codec ID/Info : UTF-8 Plain Text
Duration : 1 h 37 min
Bit rate : 62 b/s
Count of elements : 1498
Stream size : 44.3 KiB (0%)
Title : Full
Language : English
Default : Yes
Forced : No

Text #2
ID : 5
Format : UTF-8
Codec ID : S_TEXT/UTF8
Codec ID/Info : UTF-8 Plain Text
Duration : 1 h 38 min
Bit rate : 67 b/s
Count of elements : 1704
Stream size : 48.8 KiB (0%)
Title : SDH
Language : English
Default : No
Forced : No

Menu
00:00:00.000 : :Chapter 01
00:03:59.906 : :Chapter 02
00:07:50.220 : :Chapter 03
00:14:23.071 : :Chapter 04
00:18:36.574 : :Chapter 05
00:23:29.992 : :Chapter 06
00:27:39.449 : :Chapter 07
00:32:51.261 : :Chapter 08
00:38:16.586 : :Chapter 09
00:43:58.177 : :Chapter 10
00:47:32.433 : :Chapter 11
00:54:25.721 : :Chapter 12
00:57:55.305 : :Chapter 13
01:02:06.806 : :Chapter 14
01:06:10.884 : :Chapter 15
01:11:01.549 : :Chapter 16
01:17:48.247 : :Chapter 17
01:23:16.783 : :Chapter 18
01:31:48.294 : :Chapter 19
01:35:52.705 : :Chapter 20


Релиз от: pic
pic


Информация
Информация Скриншоты Пиры Скачавшие Список файлов
Залил Оценка Просмотров Скачан Файлов
АРХАНГЕЛ 0 147141

Теги
комедия, военный

Похожие раздачи

Поиск не дал результатов.Больше похожих раздач →

Список комментариев
Комментарии отсутствуют

Добавить комментарий
Внимание
Гости не могут оставлять комментарии, авторизуйтесь.

Панель навигации

ПОПУЛЯРНЫЕ РАЗДАЧИ
скачать торрент Ледокол (2016) WEB-DLRip | iTunesскачать торрент Доктор Стрэндж (2016) TS
скачать торрент Ледокол (2016) WEB-DL 1080p | iTunesскачать торрент Дуэлянт (2016) CAMRip
скачать торрент Отряд самоубийц (2016) BDRip 1080p | Расширeнная версия | iTunesскачать торрент Джейсон Борн (2016) HDTV 720p | Чистый звук
скачать торрент Первый мститель: Противостояние (2016) BDRip | IMAX Edition | iTunesскачать торрент Тарзан. Легенда (2016) HDRip | iTunes
скачать торрент Dark Souls 3: Deluxe Edition (2016) PC | RePack от xatabскачать торрент Люди Икс: Апокалипсис / X-Men: Apocalypse (2016) BDRip 720p | Лицензия

Будь с нами!


Наши друзья 



Информация, расположенная на данном сервере, предназначена исключительно для частного использования и не может быть загружена/перенесена на другой компьютер. Ни владелец сайта, ни хостинг-провайдер, ни любые другие физические или юридические лица не могут нести никакой отвественностиза любое использование материалов данного сайта.

© 2012-2016 TRACK.KG.