Загрузить Adobe Flash Player
Как тут качать? :: Как встать на раздачу?

Скачать / Download torrent  
Хэш: f5a3a17688261fc59fdd8cb17d13de0a5b021ef0
Добавлен: 15 сентября 2016 в 15:52:35
Категория: Фильмы » Зарубежное кино » Мелодрамы / Драмы
Размер: 3.47 GB
Проверил: АРХАНГЕЛ 15 сентября 2016 в 15:52:35

Раздают: 24 Качают: 22

Будденброки / Buddenbrooks (2008) HDRip-AVC | P

pic

Информация о фильме
Название: Будденброки
Оригинальное название: Buddenbrooks
Год выхода: 2008
Жанр: драма

Режиссер: Генрих Брелёр
В ролях: Армин Мюллер-Шталь, Ирис Бербен, Джессика Шварц, Аугуст Диль, Марк Вашке, Рабан Билинг, Леа Боске, Майя Шёне, Нина Пролл, Юстус фон Донаньи

О фильме: Эпическое киноповествование о судьбах трех поколений династии Будденброков — немецких коммерсантов, ярко воплотивших в себе устои и мировосприятие бюргерского сословия. Дела идут в гору, торговля бурно развивается, и Будденброки становятся одними из самых влиятельных промышленников в городе.

Страна: Германия / Bavaria Film, Colonia Media, Westdeutscher Rundfunk (WDR)…
Продолжительность: 02:31:22
Перевод: Профессиональный (многоголосый, закадровый)

pic pic pic pic
pic
Файл
Качество: HDRip-AVC
Формат: MKV
Видео: AVC, 2700 Kb/s, 1024x434
Звук: Russian: AC3, 384 Kb/s (6 ch), Hungarian: AC3, 192 Kb/s (2 ch)
Format : Matroska
Format version : Version 4 / Version 2
File size : 3.47 GiB
Duration : 2 h 31 min
Overall bit rate : 3 281 kb/s
Movie name : Rip by basma4i
Writing application : XviD4PSP 7.0.293 DAILY
Writing library : Lavf57.41.100 / Lavf57.41.100
Cover : Yes
Attachments : cover.jpg
ENCODING_INFO : MATROSKA,WEBM > MKV / MPEG4 > X264 VBR-2P 2700kbps Произвольный / AC3 > AC3 CBR 384kbps / AAC-LC > AC3 CBR 192kbps

Video
ID : 1
Format : AVC
Format/Info : Advanced Video Codec
Format profile : Main@L4.1
Format settings, CABAC : Yes
Format settings, ReFrames : 11 frames
Codec ID : V_MPEG4/ISO/AVC
Bit rate : 2 700 kb/s
Width : 1 024 pixels
Height : 434 pixels
Display aspect ratio : 2.35:1
Frame rate mode : Variable
Original frame rate : 23.976 FPS
Color space : YUV
Chroma subsampling : 4:2:0
Bit depth : 8 bits
Scan type : Progressive
Bits/(Pixel*Frame) : 0.253
Writing library : x264 core 148 r2705M 3f5ed56
Encoding settings : cabac=1 / ref=12 / deblock=1:-3:-3 / analyse=0x1:0x131 / me=umh / subme=11 / psy=1 / psy_rd=1.00:0.20 / mixed_ref=1 / me_range=32 / chroma_me=1 / trellis=2 / 8x8dct=0 / cqm=0 / deadzone=21,11 / fast_pskip=1 / chroma_qp_offset=-3 / threads=11 / lookahead_threads=1 / sliced_threads=0 / nr=0 / decimate=0 / interlaced=0 / bluray_compat=0 / constrained_intra=0 / bframes=10 / b_pyramid=1 / b_adapt=1 / b_bias=6 / direct=3 / weightb=1 / open_gop=0 / weightp=2 / keyint=230 / keyint_min=23 / scenecut=40 / intra_refresh=0 / rc_lookahead=40 / rc=2pass / mbtree=1 / bitrate=2700 / ratetol=1.0 / qcomp=0.60 / qpmin=0 / qpmax=69 / qpstep=4 / cplxblur=20.0 / qblur=0.5 / vbv_maxrate=35000 / vbv_bufsize=65000 / nal_hrd=none / filler=0 / ip_ratio=1.40 / aq=1:1.00
Default : Yes
Forced : No
DURATION : 02:31:22.371000000

Audio #1
ID : 2
Format : AC-3
Format/Info : Audio Coding 3
Mode extension : CM (complete main)
Format settings, Endianness : Big
Codec ID : A_AC3
Duration : 2 h 31 min
Bit rate mode : Constant
Bit rate : 384 kb/s
Channel(s) : 6 channels
Channel positions : Front: L C R, Side: L R, LFE
Sampling rate : 48.0 kHz
Frame rate : 31.250 FPS (1536 spf)
Bit depth : 32 bits
Compression mode : Lossy
Delay relative to video : 1 ms
Stream size : 416 MiB (12%)
Language : Russian
Default : Yes
Forced : No
DURATION : 02:31:22.305000000

Audio #2
ID : 3
Format : AC-3
Format/Info : Audio Coding 3
Mode extension : CM (complete main)
Format settings, Endianness : Big
Codec ID : A_AC3
Duration : 2 h 31 min
Bit rate mode : Constant
Bit rate : 192 kb/s
Channel(s) : 2 channels
Channel positions : Front: L R
Sampling rate : 44.1 kHz
Frame rate : 28.711 FPS (1536 spf)
Bit depth : 32 bits
Compression mode : Lossy
Stream size : 208 MiB (6%)
Language : Hungarian
Default : No
Forced : No
DURATION : 02:31:22.567000000


Релиз от: pic
pic


Информация
Информация Скриншоты Пиры Скачавшие Список файлов
Залил Оценка Просмотров Скачан Файлов
АРХАНГЕЛ 0 14541

Теги
драма

Похожие раздачи

Поиск не дал результатов.Больше похожих раздач →

Список комментариев
Комментарии отсутствуют

Добавить комментарий
Внимание
Гости не могут оставлять комментарии, авторизуйтесь.

Панель навигации

ПОПУЛЯРНЫЕ РАЗДАЧИ
скачать торрент Ледокол (2016) WEB-DLRip | iTunesскачать торрент Доктор Стрэндж (2016) TS
скачать торрент Ледокол (2016) WEB-DL 1080p | iTunesскачать торрент Дуэлянт (2016) CAMRip
скачать торрент Отряд самоубийц (2016) BDRip 1080p | Расширeнная версия | iTunesскачать торрент Джейсон Борн (2016) HDTV 720p | Чистый звук
скачать торрент Первый мститель: Противостояние (2016) BDRip | IMAX Edition | iTunesскачать торрент Тарзан. Легенда (2016) HDRip | iTunes
скачать торрент Полтора шпиона (2016) BDRip 1080p | Лицензияскачать торрент Джейсон Борн (2016) HDTV 1080p | Чистый звук

Будь с нами!


Наши друзья 



Информация, расположенная на данном сервере, предназначена исключительно для частного использования и не может быть загружена/перенесена на другой компьютер. Ни владелец сайта, ни хостинг-провайдер, ни любые другие физические или юридические лица не могут нести никакой отвественностиза любое использование материалов данного сайта.

© 2012-2016 TRACK.KG.