Загрузить Adobe Flash Player
Как тут качать? :: Как встать на раздачу?

Скачать / Download torrent  
Хэш: 359d913885cfcdbd759da1d5992813c789a53fe0
Добавлен: 1 сентября 2016 в 13:48:32
Категория: Фильмы » Зарубежное кино » Боевики
Размер: 2.46 GB
Проверил: АРХАНГЕЛ 1 сентября 2016 в 13:48:32

Раздают: 54 Качают: 78

Полтора шпиона / Central Intelligence (2016) WEB-DLRip-AVC | iTunes

pic

Информация о фильме
Название: Полтора шпиона
Оригинальное название: Central Intelligence
Год выхода: 2016
Жанр: боевик, комедия, криминал

Режиссер: Роусон Маршалл Тёрбер
В ролях: Дуэйн Джонсон, Кевин Харт, Эми Райан, Даниэль Николет, Джейсон Бейтмен, Аарон Пол, Райан Хансен, Тим Гриффин, Тимоти Джон Смит

Слоган: «Они попробуют спасти мир: малыш Харт и скала Джонсон»

О фильме: От лайка в соцсети до спасения мира — один шаг. Сегодня ты френдишь бывшего одноклассника, а завтра — он тащит тебя под пули. Кто ж знал, что заядлый любитель пончиков превратится в похожего на скалу супершпиона.

Страна: США / New Line Cinema, Bluegrass Films, Principato-Young Entertainment
Продолжительность: 01:47:31
Перевод: Дублированный [iTunes]

pic pic pic pic
pic
Файл
Качество: WEB-DLRip-AVC
Формат: MKV
Видео: AVC, 2700 Kb/s, 1024x426
Звук: Russian: AC3, 384 Kb/s (6 ch), English: AC3, 192 Kb/s (2 ch)
Субтитры: Russian (на надписи и песни - вшитые), English
Дополнительно: Сохранены оригинальные главы (чаптеры)

Format : Matroska
Format version : Version 4 / Version 2
File size : 2.46 GiB
Duration : 1 h 48 min
Overall bit rate mode : Variable
Overall bit rate : 3 265 kb/s
Movie name : Rip by basma4i
Writing application : XviD4PSP 7.0.286 DAILY
Writing library : Lavf57.41.100 / Lavf57.41.100
Cover : Yes
Attachments : cover.jpeg
ENCODING_INFO : MATROSKA,WEBM > MKV / H264 > X264 VBR-2P 2700kbps Произвольный / AC3 > AC3 CBR 384kbps / AC3 > AC3 CBR 192kbps

Video
ID : 1
Format : AVC
Format/Info : Advanced Video Codec
Format profile : Main@L4.1
Format settings, CABAC : Yes
Format settings, ReFrames : 12 frames
Codec ID : V_MPEG4/ISO/AVC
Bit rate mode : Variable
Bit rate : 2 700 kb/s
Maximum bit rate : 31.5 Mb/s
Width : 1 024 pixels
Height : 426 pixels
Display aspect ratio : 2.40:1
Frame rate mode : Variable
Original frame rate : 23.976 FPS
Color space : YUV
Chroma subsampling : 4:2:0
Bit depth : 8 bits
Scan type : Progressive
Bits/(Pixel*Frame) : 0.258
Writing library : x264 core 148 r2705M 3f5ed56
Encoding settings : cabac=1 / ref=12 / deblock=1:-3:-3 / analyse=0x1:0x131 / me=umh / subme=11 / psy=1 / psy_rd=1.00:0.20 / mixed_ref=1 / me_range=32 / chroma_me=1 / trellis=2 / 8x8dct=0 / cqm=0 / deadzone=21,11 / fast_pskip=1 / chroma_qp_offset=-3 / threads=11 / lookahead_threads=1 / sliced_threads=0 / nr=0 / decimate=0 / interlaced=0 / bluray_compat=0 / constrained_intra=0 / bframes=10 / b_pyramid=2 / b_adapt=1 / b_bias=6 / direct=3 / weightb=1 / open_gop=0 / weightp=2 / keyint=230 / keyint_min=23 / scenecut=40 / intra_refresh=0 / rc_lookahead=40 / rc=2pass / mbtree=1 / bitrate=2700 / ratetol=1.0 / qcomp=0.60 / qpmin=0 / qpmax=69 / qpstep=4 / cplxblur=20.0 / qblur=0.5 / vbv_maxrate=31500 / vbv_bufsize=65000 / nal_hrd=vbr / filler=0 / ip_ratio=1.40 / aq=1:1.00
Language : English
Default : Yes
Forced : No
Color range : Limited
Color primaries : BT.709
Transfer characteristics : BT.709
Matrix coefficients : BT.709
DURATION : 01:47:31.701000000

Audio #1
ID : 2
Format : AC-3
Format/Info : Audio Coding 3
Mode extension : CM (complete main)
Format settings, Endianness : Big
Codec ID : A_AC3
Duration : 1 h 48 min
Bit rate mode : Constant
Bit rate : 384 kb/s
Channel(s) : 6 channels
Channel positions : Front: L C R, Side: L R, LFE
Sampling rate : 48.0 kHz
Frame rate : 31.250 FPS (1536 spf)
Bit depth : 32 bits
Compression mode : Lossy
Stream size : 297 MiB (12%)
Title : iTunes
Language : Russian
Default : Yes
Forced : No
DURATION : 01:47:31.712000000

Audio #2
ID : 3
Format : AC-3
Format/Info : Audio Coding 3
Mode extension : CM (complete main)
Format settings, Endianness : Big
Codec ID : A_AC3
Duration : 1 h 48 min
Bit rate mode : Constant
Bit rate : 192 kb/s
Channel(s) : 2 channels
Channel positions : Front: L R
Sampling rate : 48.0 kHz
Frame rate : 31.250 FPS (1536 spf)
Bit depth : 32 bits
Compression mode : Lossy
Stream size : 148 MiB (6%)
Language : English
Default : No
Forced : No
DURATION : 01:48:04.608000000

Text
ID : 4
Format : UTF-8
Codec ID : S_TEXT/UTF8
Codec ID/Info : UTF-8 Plain Text
Language : English
Default : Yes
Forced : No
DURATION : 01:47:26.879000000

Menu
00:00:00.000 1
00:09:12.000 2
00:20:12.000 3
00:30:31.000 4
00:43:22.000 5
00:52:43.000 6
00:58:10.000 7
01:10:17.000 8
01:18:37.000 9
01:28:57.000 10
01:39:37.000 11
01:41:33.000 12


Релиз от: pic
pic


Информация
Информация Скриншоты Пиры Скачавшие Список файлов
Залил Оценка Просмотров Скачан Файлов
АРХАНГЕЛ 0 203221

Теги
боевик, комедия, криминал

Похожие раздачи

Полтора шпиона (2016) BDRip 1080p | Лицензия 13.23 GB

Полтора шпиона (2016) BDRip 720p | Лицензия 5.37 GB

Полтора шпиона (2016) BDRip | Лицензия 1.46 GB

Полтора шпиона / Central Intelligence (2016) WEB-DLRip | iTunes 2.04 GB

Больше похожих раздач →

Список комментариев
Комментарии отсутствуют

Добавить комментарий
Внимание
Гости не могут оставлять комментарии, авторизуйтесь.

Панель навигации

ПОПУЛЯРНЫЕ РАЗДАЧИ
скачать торрент Пассажиры (2016) TSскачать торрент Доктор Стрэндж (2016) TS
скачать торрент Отряд самоубийц (2016) BDRip 1080p | Расширeнная версия | iTunesскачать торрент Плохой Санта 2 (2016) WEB-DLRip | iTunes
скачать торрент Первый мститель: Противостояние (2016) BDRip | IMAX Edition | iTunesскачать торрент Джейсон Борн (2016) HDTV 1080p | Чистый звук
скачать торрент Любовь не по размеру (2016) BDRip | Лицензияскачать торрент Глубоководный горизонт (2016) HDRip | iTunes
скачать торрент Волки и овцы: бе-е-е-зумное превращение (2016) WEB-DLRip | Лицензияскачать торрент Голограмма для короля (2016) HDRip | Лицензия

Будь с нами!


Наши друзья 



Информация, расположенная на данном сервере, предназначена исключительно для частного использования и не может быть загружена/перенесена на другой компьютер. Ни владелец сайта, ни хостинг-провайдер, ни любые другие физические или юридические лица не могут нести никакой отвественностиза любое использование материалов данного сайта.

© 2012-2017 TRACK.KG.