Загрузить Adobe Flash Player
Как тут качать? :: Как встать на раздачу?

Скачать / Download torrent  
Хэш: da6a2f210a2979e2f2d5a3bb464d184e5cb1376a
Добавлен: 18 августа 2016 в 07:41:55
Категория: Фильмы » Зарубежное кино » Комедии / Пародийные
Размер: 2.52 GB
Проверил: АРХАНГЕЛ 18 августа 2016 в 07:41:55

Раздают: 1 Качают: 7

Декамерон / Maraviglioso Boccaccio (2015) HDRip-AVC | iTunes

pic

Информация о фильме
Название: Декамерон
Оригинальное название: Maraviglioso Boccaccio
Год выхода: 2015
Жанр: драма, комедия, история

Режиссер: Паоло Тавиани, Витторио Тавиани
В ролях: Лелло Арена, Паола Кортеллези, Каролина Крешентини, Флавио Паренти, Виттория Пуччини, Микеле Риондино, Ким Росси Стюарт, Риккардо Скамарчио, Касия Смутняк, Жазмин Тринка, Розабелла Лауренти Селлерс

О фильме: Флоренция. XIV век. Повсюду свирепствует «Чёрная смерть». Три юноши и семь девушек сбегают в деревню, чтобы оградить себя от чумы. Там, чтобы скоротать время, они начинают рассказывать друг другу разные истории, посвящённые любви... По мотивам "Декамерона" Джованни Боккаччо.

Страна: Италия, Франция / Stemal Entertainment, Cinemaundici, Barbary Films
Продолжительность: 02:00:50
Перевод: Дублированный [iTunes]

pic pic pic pic pic
Файл
Качество: HDRip-AVC
Формат: MKV
Видео: AVC, 2600 Kb/s, 1024x576
Звук: AC3, 384 Kb/s (2 ch)

Format : Matroska
Format version : Version 4 / Version 2
File size : 2.52 GiB
Duration : 2 h 0 min
Overall bit rate : 2 986 kb/s
Movie name : Rip by basma4i
Encoded date : UTC 2016-08-18 01:08:37
Writing application : mkvmerge v9.3.1 ('Mask Machine') 64bit
Writing library : libebml v1.3.4 + libmatroska v1.4.5 / XviD4PSP 6.0 / 54.29.105

Video
ID : 1
Format : AVC
Format/Info : Advanced Video Codec
Format profile : Main@L4.1
Format settings, CABAC : Yes
Format settings, ReFrames : 11 frames
Codec ID : V_MPEG4/ISO/AVC
Duration : 2 h 0 min
Bit rate : 2 600 kb/s
Width : 1 024 pixels
Height : 576 pixels
Display aspect ratio : 1.85:1
Original display aspect ratio : 1.85:1
Frame rate mode : Constant
Frame rate : 23.976 (24000/1001) FPS
Color space : YUV
Chroma subsampling : 4:2:0
Bit depth : 8 bits
Scan type : Progressive
Bits/(Pixel*Frame) : 0.184
Stream size : 2.19 GiB (87%)
Writing library : x264 core 128 r2216M 198a7ea
Encoding settings : cabac=1 / ref=12 / deblock=1:-3:-3 / analyse=0x1:0x131 / me=umh / subme=11 / psy=1 / psy_rd=1.00:0.20 / mixed_ref=1 / me_range=48 / chroma_me=1 / trellis=2 / 8x8dct=0 / cqm=0 / deadzone=21,11 / fast_pskip=1 / chroma_qp_offset=-3 / threads=10 / lookahead_threads=1 / sliced_threads=0 / nr=0 / decimate=1 / interlaced=0 / bluray_compat=0 / constrained_intra=0 / bframes=10 / b_pyramid=1 / b_adapt=1 / b_bias=10 / direct=3 / weightb=1 / open_gop=0 / weightp=2 / keyint=230 / keyint_min=23 / scenecut=40 / intra_refresh=0 / rc_lookahead=40 / rc=2pass / mbtree=1 / bitrate=2600 / ratetol=1.0 / qcomp=0.60 / qpmin=0 / qpmax=69 / qpstep=4 / cplxblur=20.0 / qblur=0.5 / vbv_maxrate=31250 / vbv_bufsize=62500 / nal_hrd=none / ip_ratio=1.40 / aq=1:1.00
Language : Italian
Default : Yes
Forced : No

Audio
ID : 2
Format : AC-3
Format/Info : Audio Coding 3
Mode extension : CM (complete main)
Format settings, Endianness : Big
Codec ID : A_AC3
Duration : 2 h 0 min
Bit rate mode : Constant
Bit rate : 384 kb/s
Channel(s) : 6 channels
Channel positions : Front: L C R, Side: L R, LFE
Sampling rate : 48.0 kHz
Frame rate : 31.250 FPS (1536 spf)
Compression mode : Lossy
Stream size : 332 MiB (13%)
Title : iTunes
Language : Russian
Default : Yes
Forced : No


Релиз от: pic
pic


Информация
Информация Скриншоты Пиры Скачавшие Список файлов
Залил Оценка Просмотров Скачан Файлов
АРХАНГЕЛ 0 16771

Теги
драма, комедия, история

Похожие раздачи

Декамерон / Maraviglioso Boccaccio (2015) WEB-DL 1080p | Лицензия 4.63 GB

Декамерон / Maraviglioso Boccaccio (2015) WEB-DLRip | Лицензия 1.47 GB

Больше похожих раздач →

Список комментариев
Комментарии отсутствуют

Добавить комментарий
Внимание
Гости не могут оставлять комментарии, авторизуйтесь.

Панель навигации

ПОПУЛЯРНЫЕ РАЗДАЧИ
скачать торрент Пассажиры (2016) TSскачать торрент Доктор Стрэндж (2016) TS
скачать торрент Отряд самоубийц (2016) BDRip 1080p | Расширeнная версия | iTunesскачать торрент Плохой Санта 2 (2016) WEB-DLRip | iTunes
скачать торрент Первый мститель: Противостояние (2016) BDRip | IMAX Edition | iTunesскачать торрент Джейсон Борн (2016) HDTV 1080p | Чистый звук
скачать торрент Любовь не по размеру (2016) BDRip | Лицензияскачать торрент Глубоководный горизонт (2016) HDRip | iTunes
скачать торрент Волки и овцы: бе-е-е-зумное превращение (2016) WEB-DLRip | Лицензияскачать торрент Голограмма для короля (2016) HDRip | Лицензия

Будь с нами!


Наши друзья 



Информация, расположенная на данном сервере, предназначена исключительно для частного использования и не может быть загружена/перенесена на другой компьютер. Ни владелец сайта, ни хостинг-провайдер, ни любые другие физические или юридические лица не могут нести никакой отвественностиза любое использование материалов данного сайта.

© 2012-2017 TRACK.KG.