Загрузить Adobe Flash Player
Как тут качать? :: Как встать на раздачу?

Скачать / Download torrent  
Хэш: ac443f9e42cf4947b10ceab4e404f110ab4467a5
Добавлен: 17 августа 2016 в 08:44:09
Категория: Фильмы » Зарубежное кино » Мелодрамы / Драмы
Размер: 3.05 GB
Проверил: АРХАНГЕЛ 17 августа 2016 в 08:44:09

Раздают: 4 Качают: 16

Выбор / The Choice (2016) HDRip-AVC | Чистый Звук

pic

Информация о фильме
Название: Выбор
Оригинальное название: The Choice
Год выхода: 2016
Жанр: драма, мелодрама

Режиссер: Росс Кац
В ролях: Александра Даддарио, Тереза Палмер, Мэгги Грэйс, Бенджамин Уокер, Том Уэллинг, Том Уилкинсон, Брэд Джеймс, Анна Энгер, Бретт Райс, Вилбур Фицджералд...

Слоган: «Пусть решает ваше сердце »

О фильме: Любовь? Серьезные отношения? Ответственность? Семья? Закоренелый холостяк Тревис Паркер считает, что все это не для него. У него есть отличная работа и верные друзья. Он увлекается охотой, рыбалкой, занимается экстремальными видами спорта — и избегает серьезных отношений. Но не родился еще на свет человек, которому удалось бы уйти от настоящей любви… Когда в доме по соседству поселяется тихая, замкнутая Габи, жизнь Тревиса меняется.

Страна: США / Nicholas Sparks Productions, Safran Company
Продолжительность: 01:50:41
Перевод: Дубляж [Чистый звук]

pic pic pic pic
pic
Файл
Качество: HDRip-AVC
Формат: MKV
Видео: AVC, 3500 Kb/s, 1024x426
Звук: AC3, 448 Kb/s (2 ch)

Format : Matroska
Format version : Version 2
File size : 3.05 GiB
Duration : 1 h 50 min
Overall bit rate : 3 950 kb/s
Encoded date : UTC 2016-08-10 14:47:01 / UTC 2016-08-10 14:47:01
Writing application : XviD4PSP 6.0 / 54.29.105
Writing library : XviD4PSP 6.0 / 54.29.105 / XviD4PSP 6.0 / 54.29.105

Video
ID : 1
Format : AVC
Format/Info : Advanced Video Codec
Format profile : Main@L4.1
Format settings, CABAC : Yes
Format settings, ReFrames : 11 frames
Codec ID : V_MPEG4/ISO/AVC
Duration : 1 h 50 min
Bit rate : 3 500 kb/s
Width : 1 024 pixels
Height : 426 pixels
Display aspect ratio : 2.40:1
Frame rate mode : Constant
Frame rate : 23.976 (24000/1001) FPS
Color space : YUV
Chroma subsampling : 4:2:0
Bit depth : 8 bits
Scan type : Progressive
Bits/(Pixel*Frame) : 0.335
Stream size : 2.65 GiB (87%)
Writing library : x264 core 128 r2216M 198a7ea
Encoding settings : cabac=1 / ref=12 / deblock=1:-3:-3 / analyse=0x1:0x131 / me=umh / subme=11 / psy=1 / psy_rd=1.00:0.20 / mixed_ref=1 / me_range=48 / chroma_me=1 / trellis=2 / 8x8dct=0 / cqm=0 / deadzone=21,11 / fast_pskip=1 / chroma_qp_offset=-3 / threads=10 / lookahead_threads=1 / sliced_threads=0 / nr=0 / decimate=1 / interlaced=0 / bluray_compat=0 / constrained_intra=0 / bframes=10 / b_pyramid=1 / b_adapt=1 / b_bias=10 / direct=3 / weightb=1 / open_gop=0 / weightp=2 / keyint=230 / keyint_min=23 / scenecut=40 / intra_refresh=0 / rc_lookahead=40 / rc=2pass / mbtree=1 / bitrate=3500 / ratetol=1.0 / qcomp=0.60 / qpmin=0 / qpmax=69 / qpstep=4 / cplxblur=20.0 / qblur=0.5 / vbv_maxrate=31250 / vbv_bufsize=62500 / nal_hrd=none / ip_ratio=1.40 / aq=1:1.00
Default : Yes
Forced : No
Statistics Tags Issue : mkvmerge v8.3.0 ('Over the Horizon') 64bit 2016-08-10 14:47:01 / XviD4PSP 6.0 / 54.29.105 2016-08-10 14:47:01 / UTC 2016-08-10 14:47:01
FromStats_BitRate : 5548527
FromStats_Duration : 01:50:41.718000000
FromStats_FrameCount : 159242
FromStats_StreamSize : 4606469660

Audio
ID : 2
Format : AC-3
Format/Info : Audio Coding 3
Mode extension : CM (complete main)
Format settings, Endianness : Big
Codec ID : A_AC3
Duration : 1 h 50 min
Bit rate mode : Constant
Bit rate : 448 kb/s
Channel(s) : 2 channels
Channel positions : Front: L R
Sampling rate : 48.0 kHz
Frame rate : 31.250 FPS (1536 spf)
Bit depth : 16 bits
Compression mode : Lossy
Stream size : 355 MiB (11%)
Default : Yes
Forced : No
Statistics Tags Issue : mkvmerge v8.3.0 ('Over the Horizon') 64bit 2016-08-10 14:47:01 / XviD4PSP 6.0 / 54.29.105 2016-08-10 14:47:01 / UTC 2016-08-10 14:47:01
FromStats_BitRate : 448000
FromStats_Duration : 01:50:41.696000000
FromStats_FrameCount : 207553
FromStats_StreamSize : 371934976


Релиз от: pic
pic


Информация
Информация Скриншоты Пиры Скачавшие Список файлов
Залил Оценка Просмотров Скачан Файлов
АРХАНГЕЛ 0 4382991

Теги
драма, мелодрама

Похожие раздачи

Выбор / The Choice (2016) BDRip 1080p | Чистый Звук 8.92 GB

Выбор / The Choice (2016) BDRip 720p | Чистый Звук 4.64 GB

Выбор / The Choice (2016) BDRip | Чистый Звук 1.46 GB

Идеальный выбор (2016) HDRip 1.46 GB

Джиган - Твой выбор (2015) MP3, 320 kbps 111.80 MB

VA - Автозвук. Лучшее. Идеальный выбор (2014) MP3, 320 kbps 1.78 GB

Больше похожих раздач →

Список комментариев
Комментарии отсутствуют

Добавить комментарий
Внимание
Гости не могут оставлять комментарии, авторизуйтесь.

Панель навигации

ПОПУЛЯРНЫЕ РАЗДАЧИ
скачать торрент Ледокол (2016) WEB-DLRip | iTunesскачать торрент Ледокол (2016) WEB-DL 1080p | iTunes
скачать торрент Дуэлянт (2016) CAMRipскачать торрент Отряд самоубийц (2016) BDRip 1080p | Расширeнная версия | iTunes
скачать торрент Джейсон Борн (2016) HDTV 720p | Чистый звукскачать торрент Первый мститель: Противостояние (2016) BDRip | IMAX Edition | iTunes
скачать торрент Тарзан. Легенда (2016) HDRip | iTunesскачать торрент Dark Souls 3: Deluxe Edition (2016) PC | RePack от xatab
скачать торрент Люди Икс: Апокалипсис / X-Men: Apocalypse (2016) BDRip 720p | Лицензияскачать торрент Полтора шпиона (2016) BDRip 1080p | Лицензия

Будь с нами!


Наши друзья 



Информация, расположенная на данном сервере, предназначена исключительно для частного использования и не может быть загружена/перенесена на другой компьютер. Ни владелец сайта, ни хостинг-провайдер, ни любые другие физические или юридические лица не могут нести никакой отвественностиза любое использование материалов данного сайта.

© 2012-2016 TRACK.KG.