Загрузить Adobe Flash Player
Как тут качать? :: Как встать на раздачу?

Скачать / Download torrent  
Хэш: 5cdef182b28fd041b1cbf85c14db0016128317a4
Добавлен: 4 августа 2016 в 12:52:34
Категория: Фильмы » Зарубежное кино » Фантастика
Размер: 2.35 GB
Проверил: АРХАНГЕЛ 4 августа 2016 в 12:52:34

Раздают: 25 Качают: 6

Z – значит Захария / Z for Zachariah (2015) BDRip-AVC | L1

pic

Информация о фильме
Название: Z – значит Захария
Оригинальное название: Z for Zachariah
Год выхода: 2015
Жанр: фантастика, драма, триллер

Режиссер: Крэйг Зобел
В ролях: Чиветел Эджиофор, Марго Робби. Крис Пайн

Слоган: «После конца света она думала, что она осталась одна. Но она ошибалась… »

О фильме: В разрушенном ядерной войной мире чудом смогла выжить 16-летняя Энн. Она встречает взрослого ученого по имени Люмис, который уже потерял надежду найти свою семью. Энн взрослеет, между ней и Люмисом рождаются чувства. Ситуация усложняется, когда появляется третий выживший — молодой парень Калеб. Начинается война за последнюю женщину на земле…

Страна: Исландия, Швейцария, Новая Зеландия, США / Lucky Hat Entertainment, Palomar Pictures (II), Zik Zak Filmworks…
Продолжительность: 01:37:54
Перевод: Любительский (одноголосый) [RAIM]

pic pic pic pic
pic

Файл
Качество: BDRip-AVC
Формат: MKV
Видео: AVC, 2500 Kb/s, 1024x430
Звук: Russian: AC3, 384 Kb/s (6 ch), English: AC3, 448 Kb/s (6 ch),
Субтитры: English, Spanish

Format : Matroska
Format version : Version 4 / Version 2
File size : 2.35 GiB
Duration : 1 h 37 min
Overall bit rate : 3 431 kb/s
Movie name : Rip by basma4i
Writing application : XviD4PSP 7.0.281 DAILY
Writing library : Lavf57.25.100 / Lavf57.25.100
Cover : Yes
Attachments : cover.jpg
ENCODING_INFO : MPEGTS > MKV / H264 > X264 VBR-2P 2500kbps Произвольный / AC3 > AC3 CBR 384kbps / DTS-HD MA > AC3 CBR 448kbps

Video
ID : 1
Format : AVC
Format/Info : Advanced Video Codec
Format profile : High@L4.1
Format settings, CABAC : Yes
Format settings, ReFrames : 12 frames
Codec ID : V_MPEG4/ISO/AVC
Bit rate : 2 500 kb/s
Width : 1 024 pixels
Height : 430 pixels
Display aspect ratio : 2.40:1
Frame rate mode : Variable
Original frame rate : 23.976 FPS
Color space : YUV
Chroma subsampling : 4:2:0
Bit depth : 8 bits
Scan type : Progressive
Bits/(Pixel*Frame) : 0.237
Writing library : x264 core 148 r2705M 3f5ed56
Encoding settings : cabac=1 / ref=12 / deblock=1:-3:-3 / analyse=0x3:0x133 / me=umh / subme=11 / psy=1 / psy_rd=1.00:0.20 / mixed_ref=1 / me_range=48 / chroma_me=1 / trellis=2 / 8x8dct=1 / cqm=0 / deadzone=21,11 / fast_pskip=1 / chroma_qp_offset=-3 / threads=12 / lookahead_threads=3 / sliced_threads=0 / nr=0 / decimate=1 / interlaced=0 / bluray_compat=0 / constrained_intra=0 / bframes=10 / b_pyramid=2 / b_adapt=2 / b_bias=8 / direct=3 / weightb=1 / open_gop=0 / weightp=2 / keyint=230 / keyint_min=23 / scenecut=40 / intra_refresh=0 / rc_lookahead=40 / rc=2pass / mbtree=1 / bitrate=2500 / ratetol=1.0 / qcomp=0.60 / qpmin=0 / qpmax=69 / qpstep=4 / cplxblur=20.0 / qblur=0.5 / vbv_maxrate=50000 / vbv_bufsize=62500 / nal_hrd=none / filler=0 / ip_ratio=1.40 / aq=1:1.00
Default : Yes
Forced : No
DURATION : 01:37:54.707000000

Audio #1
ID : 2
Format : AC-3
Format/Info : Audio Coding 3
Mode extension : CM (complete main)
Format settings, Endianness : Big
Codec ID : A_AC3
Duration : 1 h 37 min
Bit rate mode : Constant
Bit rate : 384 kb/s
Channel(s) : 6 channels
Channel positions : Front: L C R, Side: L R, LFE
Sampling rate : 48.0 kHz
Frame rate : 31.250 FPS (1536 spf)
Bit depth : 32 bits
Compression mode : Lossy
Stream size : 269 MiB (11%)
Language : Russian
Default : Yes
Forced : No
DURATION : 01:37:54.848000000

Audio #2
ID : 3
Format : AC-3
Format/Info : Audio Coding 3
Mode extension : CM (complete main)
Format settings, Endianness : Big
Codec ID : A_AC3
Duration : 1 h 37 min
Bit rate mode : Constant
Bit rate : 448 kb/s
Channel(s) : 6 channels
Channel positions : Front: L C R, Side: L R, LFE
Sampling rate : 48.0 kHz
Frame rate : 31.250 FPS (1536 spf)
Bit depth : 32 bits
Compression mode : Lossy
Stream size : 314 MiB (13%)
Language : English
Default : No
Forced : No
DURATION : 01:37:54.720000000

Text #1
ID : 4
Format : PGS
Codec ID : S_HDMV/PGS
Codec ID/Info : Picture based subtitle format used on BDs/HD-DVDs
Language : English
Default : Yes
Forced : No
DURATION : 01:24:08.298000000

Text #2
ID : 5
Format : PGS
Codec ID : S_HDMV/PGS
Codec ID/Info : Picture based subtitle format used on BDs/HD-DVDs
Language : English
Default : No
Forced : No
DURATION : 01:30:21.838000000

Text #3
ID : 6
Format : PGS
Codec ID : S_HDMV/PGS
Codec ID/Info : Picture based subtitle format used on BDs/HD-DVDs
Language : Spanish
Default : No
Forced : No
DURATION : 01:24:08.340000000


Релиз от: pic
pic


Информация
Информация Скриншоты Пиры Скачавшие Список файлов
Залил Оценка Просмотров Скачан Файлов
АРХАНГЕЛ +1 2051371

Теги
фантастика, драма, триллер

Похожие раздачи

Поиск не дал результатов.Больше похожих раздач →

Список комментариев
Комментарии отсутствуют

Добавить комментарий
Внимание
Гости не могут оставлять комментарии, авторизуйтесь.

Панель навигации

ПОПУЛЯРНЫЕ РАЗДАЧИ
скачать торрент Ледокол (2016) WEB-DLRip | iTunesскачать торрент Доктор Стрэндж (2016) TS
скачать торрент Ледокол (2016) WEB-DL 1080p | iTunesскачать торрент Дуэлянт (2016) CAMRip
скачать торрент Отряд самоубийц (2016) BDRip 1080p | Расширeнная версия | iTunesскачать торрент Джейсон Борн (2016) HDTV 720p | Чистый звук
скачать торрент Первый мститель: Противостояние (2016) BDRip | IMAX Edition | iTunesскачать торрент Тарзан. Легенда (2016) HDRip | iTunes
скачать торрент Dark Souls 3: Deluxe Edition (2016) PC | RePack от xatabскачать торрент Люди Икс: Апокалипсис / X-Men: Apocalypse (2016) BDRip 720p | Лицензия

Будь с нами!


Наши друзья 



Информация, расположенная на данном сервере, предназначена исключительно для частного использования и не может быть загружена/перенесена на другой компьютер. Ни владелец сайта, ни хостинг-провайдер, ни любые другие физические или юридические лица не могут нести никакой отвественностиза любое использование материалов данного сайта.

© 2012-2016 TRACK.KG.