Загрузить Adobe Flash Player
Как тут качать? :: Как встать на раздачу?

Скачать / Download torrent  
Хэш: e81d831318f7ab04be84c52e1a349cfe1b4fba7f
Добавлен: 3 августа 2016 в 01:25:26
Категория: Фильмы » Зарубежное кино » Мелодрамы / Драмы
Размер: 2.82 GB
Проверил: АРХАНГЕЛ 3 августа 2016 в 01:25:26

Раздают: 33 Качают: 10

Месть от кутюр / The Dressmaker (2015) HDRip-AVC | P

pic

Информация о фильме
Название: Месть от кутюр
Оригинальное название: The Dressmaker
Год выхода: 2015
Жанр: драма

Режиссер: Джослин Мурхаус
В ролях: Кейт Уинслет, Лиам Хемсворт, Сара Снук, Хьюго Уивинг, Кэролайн Гудолл, Джуди Дэвис, Керри Фокс, Ребекка Гибни, Шэйн Джейкобсон, Хейли Магнус

Слоган: «Фильм о любви и мести от кутюр»

О фильме: Гламурная женщина возвращается в родной город, откуда уехала еще ребенком после обвинения в убийстве. Жители городка сначала не принимают ее, но постепенно она завоевывает расположение местных дам благодаря остроумию и умению кроить безупречные наряды.

Страна: Австралия / Amazon Studios, Apollo Media, Film Art Media, Screen Australia
Продолжительность: 01:58:40
Перевод: Профессиональный (многоголосый закадровый) [FocusStudio]

pic pic pic pic
pic
Файл
Качество: HDRip-AVC
Формат: MKV
Видео: AVC, 2500 Kb/s, 1024x430
Звук: Russian / English: AC3, 448 Kb/s (6 ch)
Субтитры: Russian, English
Дополнительно: Сохранены оригинальные главы (чаптеры)

Format : Matroska
Format version : Version 4 / Version 2
File size : 2.82 GiB
Duration : 1 h 58 min
Overall bit rate : 3 400 kb/s
Movie name : Rip by basma4i
Writing application : XviD4PSP 7.0.281 DAILY
Writing library : Lavf57.25.100 / Lavf57.25.100
Cover : Yes
Attachments : cover.png
ENCODING_INFO : MATROSKA,WEBM > MKV / H264 > X264 VBR-2P 2500kbps Произвольный / AC3 > AC3 CBR 480kbps / AC3 > AC3 CBR 480kbps

Video
ID : 1
Format : AVC
Format/Info : Advanced Video Codec
Format profile : High@L4.1
Format settings, CABAC : Yes
Format settings, ReFrames : 12 frames
Codec ID : V_MPEG4/ISO/AVC
Bit rate : 2 500 kb/s
Width : 1 024 pixels
Height : 430 pixels
Display aspect ratio : 2.40:1
Frame rate mode : Variable
Original frame rate : 24.000 FPS
Color space : YUV
Chroma subsampling : 4:2:0
Bit depth : 8 bits
Scan type : Progressive
Bits/(Pixel*Frame) : 0.237
Writing library : x264 core 148 r2705M 3f5ed56
Encoding settings : cabac=1 / ref=12 / deblock=1:-3:-3 / analyse=0x3:0x133 / me=umh / subme=11 / psy=1 / psy_rd=1.00:0.20 / mixed_ref=1 / me_range=48 / chroma_me=1 / trellis=2 / 8x8dct=1 / cqm=0 / deadzone=21,11 / fast_pskip=1 / chroma_qp_offset=-3 / threads=12 / lookahead_threads=3 / sliced_threads=0 / nr=0 / decimate=1 / interlaced=0 / bluray_compat=0 / constrained_intra=0 / bframes=10 / b_pyramid=2 / b_adapt=2 / b_bias=8 / direct=3 / weightb=1 / open_gop=0 / weightp=2 / keyint=240 / keyint_min=24 / scenecut=40 / intra_refresh=0 / rc_lookahead=40 / rc=2pass / mbtree=1 / bitrate=2500 / ratetol=1.0 / qcomp=0.60 / qpmin=0 / qpmax=69 / qpstep=4 / cplxblur=20.0 / qblur=0.5 / vbv_maxrate=50000 / vbv_bufsize=65000 / nal_hrd=none / filler=0 / ip_ratio=1.40 / aq=1:1.00
Language : English
Default : Yes
Forced : No
Color range : Limited
Matrix coefficients : BT.709
DURATION : 01:58:40.047000000
ENCODING_INFO : x264 - core 148 r2692+54 23ba871 t_mod_Custom [8-bit@all X86_64] - H.264/MPEG-4 AVC codec - Copyleft 2003-2015 - http://www.videolan.org/x264.html - options: cabac=1 ref=9 deblock=1:-3:-3 analyse=0x3:0x133 me=umh subme=11 psy=1 fade_compensate=0.00 psy_rd=0.95:0.00 mixed_ref=1 me_range=48 chroma_me=1 trellis=2 8x8dct=1 cqm=0 deadzone=21,11 fast_pskip=0 chroma_qp_offset=-2 threads=12 lookahead_threads=3 sliced_threads=0 nr=0 decimate=0 interlaced=0 bluray_compat=0 constrained_intra=0 fgo=0 bframes=10 b_pyramid=2 b_adapt=2 b_bias=0 direct=3 weightb=1 open_gop=0 weightp=2 keyint=240 keyint_min=24 scenecut=40 intra_refresh=0 rc=crf mbtree=0 crf=15.0000 qcomp=0.80 qpmin=0:0:0 qpmax=69:69:69 qpstep=4 ip_ratio=1.40 pb_ratio=1.30 aq=3:0.90 aq-sensitivity=10.00 aq-factor=1.00:1.00:1.00 aq2=0 aq3=0

Audio #1
ID : 2
Format : AC-3
Format/Info : Audio Coding 3
Mode extension : CM (complete main)
Format settings, Endianness : Big
Codec ID : A_AC3
Duration : 1 h 58 min
Bit rate mode : Constant
Bit rate : 448 kb/s
Channel(s) : 6 channels
Channel positions : Front: L C R, Side: L R, LFE
Sampling rate : 48.0 kHz
Frame rate : 31.250 FPS (1536 spf)
Bit depth : 32 bits
Compression mode : Lossy
Stream size : 380 MiB (13%)
Title : MVO FocusStudio
Language : Russian
Default : Yes
Forced : No
DURATION : 01:58:40.128000000

Audio #2
ID : 3
Format : AC-3
Format/Info : Audio Coding 3
Mode extension : CM (complete main)
Format settings, Endianness : Big
Codec ID : A_AC3
Duration : 1 h 58 min
Bit rate mode : Constant
Bit rate : 448 kb/s
Channel(s) : 6 channels
Channel positions : Front: L C R, Side: L R, LFE
Sampling rate : 48.0 kHz
Frame rate : 31.250 FPS (1536 spf)
Bit depth : 32 bits
Compression mode : Lossy
Stream size : 380 MiB (13%)
Language : English
Default : No
Forced : No
DURATION : 01:58:40.128000000

Text #1
ID : 4
Format : UTF-8
Codec ID : S_TEXT/UTF8
Codec ID/Info : UTF-8 Plain Text
Title : FocusStudio
Language : Russian
Default : Yes
Forced : No
DURATION : 01:54:07.305000000

Text #2
ID : 5
Format : UTF-8
Codec ID : S_TEXT/UTF8
Codec ID/Info : UTF-8 Plain Text
Language : English
Default : No
Forced : No
DURATION : 01:58:32.259000000

Menu
00:00:00.000 : :Chapter 01
00:05:35.931 : :Chapter 02
00:13:28.778 : :Chapter 03
00:19:39.232 : :Chapter 04
00:24:20.221 : :Chapter 05
00:29:59.518 : :Chapter 06
00:36:00.462 : :Chapter 07
00:43:53.059 : :Chapter 08
00:49:12.170 : :Chapter 09
00:55:21.831 : :Chapter 10
01:04:09.483 : :Chapter 11
01:13:10.315 : :Chapter 12
01:21:49.625 : :Chapter 13
01:28:28.315 : :Chapter 14
01:35:43.375 : :Chapter 15
01:42:55.098 : :Chapter 16
01:46:32.231 : :Chapter 17
01:54:04.391 : :Chapter 18


Релиз от: pic
pic


Информация
Информация Скриншоты Пиры Скачавшие Список файлов
Залил Оценка Просмотров Скачан Файлов
АРХАНГЕЛ 0 219121

Теги
драма

Похожие раздачи

Месть от кутюр (2015) BDRip 1080p | Лицензия 7.82 GB

Месть от кутюр (2015) BDRip 720p | Лицензия 5.82 GB

Месть от кутюр (2015) HDRip | Лицензия 1.46 GB

Полицейский-самурай 2: Смертельная месть / Samurai Cop 2: Deadly Vengeance (2015) HDRip | L1 1.45 GB

Месть убийцы / Vengeance of an Assassin / Rew thalu rew (2014) WEB-DLRip | A 1.38 GB

Красный клевер / Месть лепрекона / Leprechaun's Revenge (2012) WEBRip | L1 1.37 GB

Странствующая блудница: Месть / Die Rache der Wanderhure (2012) SATRip 1.61 GB

Месть / The Return (2006) BDRip 720p | D 3.50 GB

Возрождение легенды 2: Месть Титанов. Коллекционное издание - Revived Legends 2: Titan's Revenge. Collector's Edition (2015) Ru 1.40 GB

Спартак: Месть / Spartacus: Vengeance {2 сезон: 01-10 серии из 10} (2012) HDTVRip | LostFilm 6.50 GB

Больше похожих раздач →

Список комментариев
Комментарии отсутствуют

Добавить комментарий
Внимание
Гости не могут оставлять комментарии, авторизуйтесь.

Панель навигации

ПОПУЛЯРНЫЕ РАЗДАЧИ
скачать торрент Ледокол (2016) WEB-DLRip | iTunesскачать торрент Доктор Стрэндж (2016) TS
скачать торрент Ледокол (2016) WEB-DL 1080p | iTunesскачать торрент Дуэлянт (2016) CAMRip
скачать торрент Отряд самоубийц (2016) BDRip 1080p | Расширeнная версия | iTunesскачать торрент Джейсон Борн (2016) HDTV 720p | Чистый звук
скачать торрент Первый мститель: Противостояние (2016) BDRip | IMAX Edition | iTunesскачать торрент Тарзан. Легенда (2016) HDRip | iTunes
скачать торрент Полтора шпиона (2016) BDRip 1080p | Лицензияскачать торрент Джейсон Борн (2016) HDTV 1080p | Чистый звук

Будь с нами!


Наши друзья 



Информация, расположенная на данном сервере, предназначена исключительно для частного использования и не может быть загружена/перенесена на другой компьютер. Ни владелец сайта, ни хостинг-провайдер, ни любые другие физические или юридические лица не могут нести никакой отвественностиза любое использование материалов данного сайта.

© 2012-2016 TRACK.KG.