Загрузить Adobe Flash Player
Как тут качать? :: Как встать на раздачу?

Скачать / Download torrent  
Хэш: 39bb736f9dac66996ba87ed05d4528a765c85f64
Добавлен: 28 июля 2016 в 11:13:38
Категория: Фильмы » Зарубежное кино » Приключения / Семейные
Размер: 2.33 GB
Проверил: АРХАНГЕЛ 28 июля 2016 в 11:13:38

Раздают: 32 Качают: 13

Братья ветра / Brothers of the Wind (2015) HDRip-AVC | L

pic

Информация о фильме
Название: Братья ветра
Оригинальное название: Brothers of the Wind
Год выхода: 2015
Жанр: Приключения, драма, семейный

Режиссер: Херардо Оливарес, Отмар Пенкер
В ролях: Жан Рено, Мануэль Камачо, Тобиас Моретти, Эва Куэн

О фильме: Альпы, 60 годы прошлого столетия. Двенадцатилетний Лукас проживает со своим отцом на небольшом хуторе. Однажды мальчик находит птенца орла, выпавшего из гнезда, и тайно приносит его домой. Однако, со временем отношения Лукаса с дикой птицей превращаются в необыкновенную дружбу и приводят к увлекательным приключениям…

Страна: Австрия / Terra Mater Factual Studios
Продолжительность: 01:37:56
Перевод: Любительский (многоголосый закадровый) GreenРай

pic pic pic pic
pic
Файл
Качество: HDRip-AVC
Формат: MKV
Видео: AVC, 2500 Kbps, 1024x552
Звук: Русский / Английский: AC3, 448 Kbps (6 ch)
Субтитры: Английский
Дополнительно: Сохранены оригинальные главы (чаптеры)

Format : Matroska
Format version : Version 4 / Version 2
File size : 2.33 GiB
Duration : 1h 37mn
Overall bit rate : 3 401 Kbps
Movie name : Rip by basma4i
Writing application : XviD4PSP 7.0.280 DAILY
Writing library : Lavf57.25.100
ENCODING_INFO : MATROSKA,WEBM > MKV / H264 > X264 VBR-2P 2500kbps Произвольный / AC3 > AC3 CBR 480kbps / DTS > AC3 CBR 480kbps
MIMETYPE : image/png
FILENAME : cover.png
DURATION : 00:00:00.000000000
Attachements : cover.png

Video
ID : 1
Format : AVC
Format/Info : Advanced Video Codec
Format profile : Main@L4.1
Format settings, CABAC : Yes
Format settings, ReFrames : 14 frames
Codec ID : V_MPEG4/ISO/AVC
Bit rate : 2 500 Kbps
Width : 1 024 pixels
Height : 552 pixels
Display aspect ratio : 1.85:1
Frame rate mode : Variable
Original frame rate : 23.976 fps
Color space : YUV
Chroma subsampling : 4:2:0
Bit depth : 8 bits
Scan type : Progressive
Bits/(Pixel*Frame) : 0.184
Writing library : x264 core 148 r2705M 3f5ed56
Encoding settings : cabac=1 / ref=14 / deblock=1:-3:-3 / analyse=0x1:0x131 / me=umh / subme=11 / psy=1 / psy_rd=1.00:0.20 / mixed_ref=1 / me_range=32 / chroma_me=1 / trellis=2 / 8x8dct=0 / cqm=0 / deadzone=21,11 / fast_pskip=1 / chroma_qp_offset=-6 / threads=12 / lookahead_threads=3 / sliced_threads=0 / nr=0 / decimate=1 / interlaced=0 / bluray_compat=0 / constrained_intra=0 / bframes=11 / b_pyramid=2 / b_adapt=2 / b_bias=10 / direct=3 / weightb=1 / open_gop=0 / weightp=2 / keyint=230 / keyint_min=23 / scenecut=40 / intra_refresh=0 / rc_lookahead=40 / rc=2pass / mbtree=1 / bitrate=2500 / ratetol=1.0 / qcomp=0.60 / qpmin=0 / qpmax=69 / qpstep=10 / cplxblur=20.0 / qblur=0.5 / ip_ratio=1.40 / aq=1:1.00
Language : English
Default : Yes
Forced : No
ENCODING_INFO : x264 - core 148 r2692+2+42 c1a827b Yuuki [8-bit@4:2:0 X86_64][GCC 5.3.0] - H.264/MPEG-4 AVC codec - Copyleft 2003-2016 - http://www.videolan.org/x264.html - options: cabac=1 ref=9 deblock=1:-3:-3 analyse=0x3:0x113 me=umh subme=11 psy=1 fade_compensate=0.00 psy_rd=1.00:0.05 mixed_ref=1 me_range=32 chroma_me=1 trellis=2 8x8dct=1 cqm=0 deadzone=21,11 fast_pskip=0 chroma_qp_offset=-2 threads=22 lookahead_threads=3 sliced_threads=0 nr=0 decimate=1 interlaced=0 bluray_compat=0 constrained_intra=0 fgo=0 bframes=8 b_pyramid=2 b_adapt=2 b_bias=0 direct=3 weightb=1 open_gop=0 weightp=2 keyint=250 keyint_min=23 scenecut=40 intra_refresh=0 rc=crf mbtree=0 crf=17.7000 qcomp=0.60 qpmin=0:0:0 qpmax=69:69:69 qpstep=4 ip_ratio=1.40 pb_ratio=1.30 aq=3:0.90
DURATION : 01:37:56.876000000

Audio #1
ID : 2
Format : AC-3
Format/Info : Audio Coding 3
Mode extension : CM (complete main)
Format settings, Endianness : Big
Codec ID : A_AC3
Duration : 1h 37mn
Bit rate mode : Constant
Bit rate : 448 Kbps
Channel(s) : 6 channels
Channel positions : Front: L C R, Side: L R, LFE
Sampling rate : 48.0 KHz
Bit depth : 32 bits
Compression mode : Lossy
Stream size : 314 MiB (13%)
Title : MVO
Language : Russian
Default : Yes
Forced : No
DURATION : 01:37:56.864000000

Audio #2
ID : 3
Format : AC-3
Format/Info : Audio Coding 3
Mode extension : CM (complete main)
Format settings, Endianness : Big
Codec ID : A_AC3
Duration : 1h 37mn
Bit rate mode : Constant
Bit rate : 448 Kbps
Channel(s) : 6 channels
Channel positions : Front: L C R, Side: L R, LFE
Sampling rate : 48.0 KHz
Bit depth : 32 bits
Compression mode : Lossy
Stream size : 314 MiB (13%)
Title : Original
Language : English
Default : No
Forced : No
DURATION : 01:37:56.896000000

Text
ID : 4
Format : UTF-8
Codec ID : S_TEXT/UTF8
Codec ID/Info : UTF-8 Plain Text
Title : Full
Language : English
Default : Yes
Forced : No
DURATION : 01:32:22.171000000

Menu
00:00:00.000 : :00:00:00.000
00:09:42.540 : :00:09:42.540
00:18:34.780 : :00:18:34.780
00:28:05.350 : :00:28:05.350
00:37:14.524 : :00:37:14.524
00:47:48.532 : :00:47:48.532
00:56:46.903 : :00:56:46.903
01:06:20.018 : :01:06:20.018
01:15:06.210 : :01:15:06.210
01:22:52.634 : :01:22:52.634
01:28:54.287 : :01:28:54.287
01:33:38.238 : :01:33:38.238


Релиз от: pic
pic


Информация
Информация Скриншоты Пиры Скачавшие Список файлов
Залил Оценка Просмотров Скачан Файлов
АРХАНГЕЛ +1 61561

Теги
приключения, драма, семейный

Похожие раздачи

Братья ветра (2015) HDRip 1.46 GB

Больше похожих раздач →

Список комментариев
Комментарии отсутствуют

Добавить комментарий
Внимание
Гости не могут оставлять комментарии, авторизуйтесь.

Панель навигации

ПОПУЛЯРНЫЕ РАЗДАЧИ
скачать торрент Ледокол (2016) WEB-DLRip | iTunesскачать торрент Доктор Стрэндж (2016) TS
скачать торрент Ледокол (2016) WEB-DL 1080p | iTunesскачать торрент Дуэлянт (2016) CAMRip
скачать торрент Отряд самоубийц (2016) BDRip 1080p | Расширeнная версия | iTunesскачать торрент Джейсон Борн (2016) HDTV 720p | Чистый звук
скачать торрент Первый мститель: Противостояние (2016) BDRip | IMAX Edition | iTunesскачать торрент Тарзан. Легенда (2016) HDRip | iTunes
скачать торрент Dark Souls 3: Deluxe Edition (2016) PC | RePack от xatabскачать торрент Люди Икс: Апокалипсис / X-Men: Apocalypse (2016) BDRip 720p | Лицензия

Будь с нами!


Наши друзья 



Информация, расположенная на данном сервере, предназначена исключительно для частного использования и не может быть загружена/перенесена на другой компьютер. Ни владелец сайта, ни хостинг-провайдер, ни любые другие физические или юридические лица не могут нести никакой отвественностиза любое использование материалов данного сайта.

© 2012-2016 TRACK.KG.