Загрузить Adobe Flash Player
Как тут качать? :: Как встать на раздачу?

Скачать / Download torrent  
Хэш: e8ae91c478446b6433c45aae6bcf6ec1fdedad93
Добавлен: 21 июля 2016 в 23:35:23
Категория: Фильмы » Зарубежное кино » Мелодрамы / Драмы
Размер: 2.61 GB
Проверил: АРХАНГЕЛ 21 июля 2016 в 23:35:23

Раздают: 13 Качают: 3

Репортерша / Whiskey Tango Foxtrot (2016) BDRip-AVC | iTunes

pic

Информация о фильме
Название: Репортерша
Оригинальное название: Whiskey Tango Foxtrot
Год выхода: 2016
Жанр: драма, комедия, военный, биография,

Режиссер: Гленн Фикарра, Джон Рекуа
В ролях: Тина Фей, Марго Робби, Мартин Фриман, Альфред Молина, Кристофер Эбботт, Билли Боб Торнтон, Николас Браун, Стивен Пикок, Шейла Ванд, Эван Йоникит

О фильме: Осознав, что она завязла в повседневной рутине, репортер Ким Бейкер решает встряхнуться и сменить кабинетные будни в Нью-Йорке на опасную работу в Афганистане. Вдали от дома и полностью за пределами собственной зоны комфорта, шокированная местными обычаями Ким заводит дружбу с рискованной репортершей Таней Вандерпоел, суровым Полковником и обаятельным фотожурналистом, которые помогают ей освоиться в этом сумасшедшем новом мире. Окруженная хаосом, Ким открывает свое истинное призвание - рисковать всем для поиска очередной главной новости.

Страна: США / Broadway Video Little Stranger, Paramount Pictures
Продолжительность: 01:51:48
Перевод: Дублированный [iTunes]

pic pic pic pic pic
pic
Файл
Качество: BDRip-AVC
Формат: MKV
Видео: AVC, 2500 Kbps, 1024x576
Звук: Russian: AC3, 384 Кb/s (6 ch), English: AC3, 448 Кb/s (6 ch)
Субтитры: Russian (forced,full), English (forced,full)
Дополнительно: Сохранены оригинальные главы (чаптеры)

Format : Matroska
Format version : Version 4 / Version 2
File size : 2.61 GiB
Duration : 1h 51mn
Overall bit rate : 3 338 Kbps
Movie name : Rip by basma4i
Writing application : XviD4PSP 7.0.279 DAILY
Writing library : Lavf57.25.100
ENCODING_INFO : MATROSKA,WEBM > MKV / H264 > X264 VBR-2P 2500kbps Произвольный / AC3 > AC3 CBR 384kbps / AC3 > AC3 CBR 448kbps
MIMETYPE : image/png
FILENAME : cover.png
DURATION : 00:00:00.000000000
Attachements : cover.png

Video
ID : 1
Format : AVC
Format/Info : Advanced Video Codec
Format profile : Main@L4.1
Format settings, CABAC : No
Format settings, ReFrames : 5 frames
Codec ID : V_MPEG4/ISO/AVC
Bit rate : 2 500 Kbps
Width : 1 024 pixels
Height : 576 pixels
Display aspect ratio : 16:9
Frame rate mode : Variable
Original frame rate : 23.976 fps
Color space : YUV
Chroma subsampling : 4:2:0
Bit depth : 8 bits
Scan type : Progressive
Bits/(Pixel*Frame) : 0.177
Title : ~V~
Writing library : x264 core 148 r2705M 3f5ed56
Encoding settings : cabac=0 / ref=5 / deblock=1:-3:-3 / analyse=0x1:0x131 / me=umh / subme=9 / psy=0 / mixed_ref=0 / me_range=32 / chroma_me=1 / trellis=0 / 8x8dct=0 / cqm=0 / deadzone=21,11 / fast_pskip=1 / chroma_qp_offset=0 / threads=12 / lookahead_threads=3 / sliced_threads=0 / nr=0 / decimate=1 / interlaced=0 / bluray_compat=0 / constrained_intra=0 / bframes=11 / b_pyramid=2 / b_adapt=2 / b_bias=9 / direct=3 / weightb=1 / open_gop=0 / weightp=2 / keyint=230 / keyint_min=23 / scenecut=40 / intra_refresh=0 / rc_lookahead=40 / rc=2pass / mbtree=1 / bitrate=2500 / ratetol=1.0 / qcomp=0.60 / qpmin=0 / qpmax=69 / qpstep=4 / cplxblur=20.0 / qblur=0.5 / ip_ratio=1.40 / aq=1:1.00
Language : English
Default : Yes
Forced : No
ENCODING_INFO : x264 - core 148 r2694 3b70645 - H.264/MPEG-4 AVC codec - Copyleft 2003-2016 - http://www.videolan.org/x264.html - options: cabac=1 ref=4 deblock=1:-3:-3 analyse=0x3:0x133 me=umh subme=11 psy=1 psy_rd=1.10:0.05 mixed_ref=1 me_range=32 chroma_me=1 trellis=2 8x8dct=1 cqm=0 deadzone=21,11 fast_pskip=0 chroma_qp_offset=-3 threads=12 lookahead_threads=1 sliced_threads=0 nr=0 decimate=0 interlaced=0 bluray_compat=0 constrained_intra=0 bframes=9 b_pyramid=2 b_adapt=2 b_bias=0 direct=3 weightb=1 open_gop=0 weightp=2 keyint=240 keyint_min=23 scenecut=40 intra_refresh=0 rc=2pass mbtree=0 bitrate=13379 ratetol=1.0 qcomp=0.60 qpmin=0 qpmax=69 qpstep=4 cplxblur=20.0 qblur=0.5 ip_ratio=1.30 pb_ratio=1.24 aq=3:0.80
DURATION : 01:51:48.374000000

Audio #1
ID : 2
Format : AC-3
Format/Info : Audio Coding 3
Mode extension : CM (complete main)
Format settings, Endianness : Big
Codec ID : A_AC3
Duration : 1h 51mn
Bit rate mode : Constant
Bit rate : 384 Kbps
Channel(s) : 6 channels
Channel positions : Front: L C R, Side: L R, LFE
Sampling rate : 48.0 KHz
Bit depth : 32 bits
Compression mode : Lossy
Stream size : 307 MiB (12%)
Title : iTunes
Language : Russian
Default : Yes
Forced : Yes
DURATION : 01:51:47.328000000

Audio #2
ID : 3
Format : AC-3
Format/Info : Audio Coding 3
Mode extension : CM (complete main)
Format settings, Endianness : Big
Codec ID : A_AC3
Duration : 1h 51mn
Bit rate mode : Constant
Bit rate : 448 Kbps
Channel(s) : 6 channels
Channel positions : Front: L C R, Side: L R, LFE
Sampling rate : 48.0 KHz
Bit depth : 32 bits
Compression mode : Lossy
Stream size : 358 MiB (13%)
Language : English
Default : Yes
Forced : No
DURATION : 01:51:47.552000000

Text #1
ID : 4
Format : UTF-8
Codec ID : S_TEXT/UTF8
Codec ID/Info : UTF-8 Plain Text
Title : Forced
Language : Russian
Default : Yes
Forced : Yes
DURATION : 01:46:06.587000000

Text #2
ID : 5
Format : UTF-8
Codec ID : S_TEXT/UTF8
Codec ID/Info : UTF-8 Plain Text
Title : Full
Language : Russian
Default : Yes
Forced : No
DURATION : 01:46:06.587000000

Text #3
ID : 6
Format : UTF-8
Codec ID : S_TEXT/UTF8
Codec ID/Info : UTF-8 Plain Text
Title : Fors
Language : English
Default : No
Forced : No
DURATION : 01:24:08.839000000

Text #4
ID : 7
Format : UTF-8
Codec ID : S_TEXT/UTF8
Codec ID/Info : UTF-8 Plain Text
Title : Full
Language : English
Default : No
Forced : No
DURATION : 01:44:37.859000000

Menu
00:00:00.000 : :Chapter 01
00:07:46.466 : :Chapter 02
00:13:47.910 : :Chapter 03
00:23:38.834 : :Chapter 04
00:30:28.660 : :Chapter 05
00:37:27.036 : :Chapter 06
00:45:36.775 : :Chapter 07
00:55:40.587 : :Chapter 08
01:05:02.106 : :Chapter 09
01:12:14.455 : :Chapter 10
01:17:50.332 : :Chapter 11
01:24:56.007 : :Chapter 12
01:34:04.972 : :Chapter 13
01:39:50.651 : :Chapter 14
01:44:39.519 : :Chapter 15


Релиз от: pic
pic


Информация
Информация Скриншоты Пиры Скачавшие Список файлов
Залил Оценка Просмотров Скачан Файлов
АРХАНГЕЛ 0 14781

Теги
драма, комедия, военный, биография

Похожие раздачи

Репортерша (2016) BDRip 1080p | Лицензия 15.69 GB

Репортерша (2016) BDRip 720p | Лицензия 7.12 GB

Репортерша (2016) HDRip | Лицензия 1.37 GB

Больше похожих раздач →

Список комментариев
Комментарии отсутствуют

Добавить комментарий
Внимание
Гости не могут оставлять комментарии, авторизуйтесь.

Панель навигации

ПОПУЛЯРНЫЕ РАЗДАЧИ
скачать торрент Ледокол (2016) WEB-DLRip | iTunesскачать торрент Доктор Стрэндж (2016) TS
скачать торрент Ледокол (2016) WEB-DL 1080p | iTunesскачать торрент Дуэлянт (2016) CAMRip
скачать торрент Отряд самоубийц (2016) BDRip 1080p | Расширeнная версия | iTunesскачать торрент Джейсон Борн (2016) HDTV 720p | Чистый звук
скачать торрент Первый мститель: Противостояние (2016) BDRip | IMAX Edition | iTunesскачать торрент Тарзан. Легенда (2016) HDRip | iTunes
скачать торрент Dark Souls 3: Deluxe Edition (2016) PC | RePack от xatabскачать торрент Люди Икс: Апокалипсис / X-Men: Apocalypse (2016) BDRip 720p | Лицензия

Будь с нами!


Наши друзья 



Информация, расположенная на данном сервере, предназначена исключительно для частного использования и не может быть загружена/перенесена на другой компьютер. Ни владелец сайта, ни хостинг-провайдер, ни любые другие физические или юридические лица не могут нести никакой отвественностиза любое использование материалов данного сайта.

© 2012-2016 TRACK.KG.