Загрузить Adobe Flash Player
Как тут качать? :: Как встать на раздачу?

Скачать / Download torrent  
Хэш: 2bae5367c7c28114526454e3661f2b662248ca07
Добавлен: 16 июля 2016 в 17:05:57
Категория: Фильмы » Зарубежное кино » Комедии / Пародийные
Размер: 1.69 GB
Проверил: АРХАНГЕЛ 16 июля 2016 в 17:05:57

Раздают: 74 Качают: 21

Любовь в раю / Love in Paradise (2016) HDTVRip-AVC | L1

pic

Информация о фильме
Название: Любовь в раю
Оригинальное название: Love in Paradise
Год выхода: 2016
Жанр: драма, комедия

Режиссер: Шон МакНамара
В ролях: Люк Перри, Эммануэль Вожье, Чад Виллетт, Джошуа Дж. Баллард, Том Батлер, Вирджил Дейвис, Фрэнсис Флэнаган, Мэтт Фрюэр, Она Грауэр, Дэвид С. Джонс

О фильме: Эвери Форд - известный актер, сделавший имя и карьеру, играя крутого ковбоя в популярном сериале. Но сейчас дни его славы остались в прошлом. Сьемки сериала приостановлены, а он зарабатывает на жизнь, снимаясь в рекламе. Неожиданно ему поступает заманчивое предложение "поработать лицом" - изображать ковбоя в рамках рекламной кампании конно-спортивного комплекса. Правда для этого ему придется отправиться в глухую провинцию, сменить ньюйоркский пентхаус на хижину в лесу, а дизайнерскую одежду на джинсы и сапоги. Короче, придется притворяться настоящим ковбоем...

Страна: США / E1 Television, eOne Television
Продолжительность: 01:23:32
Перевод: Любительский одноголосый [Lord32x Studio]

pic pic pic pic
pic
Файл
Качество: HDTVRip-AVC
Формат: MKV
Видео: AVC, 2500 Kb/s, 1024x576
Звук: Russian / English: AC3, 192 Kb/s (2 ch)
Дополнительно: Сохранены оригинальные главы (Чаптеры)

Format : Matroska
Format version : Version 4 / Version 2
File size : 1.69 GiB
Duration : 1h 23mn
Overall bit rate : 2 890 Kbps
Movie name : Rip by basma4i
Writing application : XviD4PSP 7.0.279 DAILY
Writing library : Lavf57.25.100
ENCODING_INFO : MATROSKA,WEBM > MKV / H264 > X264 VBR-2P 2500kbps Произвольный / MP3 > AC3 CBR 192kbps / AAC-LC > AC3 CBR 192kbps
MIMETYPE : image/jpeg
FILENAME : Cover.jpg
DURATION : 00:00:00.000000000
Attachements : Cover.jpg

Video
ID : 1
Format : AVC
Format/Info : Advanced Video Codec
Format profile : Main@L4.1
Format settings, CABAC : No
Format settings, ReFrames : 11 frames
Codec ID : V_MPEG4/ISO/AVC
Bit rate : 2 500 Kbps
Width : 1 024 pixels
Height : 576 pixels
Display aspect ratio : 16:9
Frame rate mode : Variable
Original frame rate : 29.970 fps
Color space : YUV
Chroma subsampling : 4:2:0
Bit depth : 8 bits
Scan type : Progressive
Bits/(Pixel*Frame) : 0.141
Writing library : x264 core 148 r2705M 3f5ed56
Encoding settings : cabac=0 / ref=11 / deblock=0:-3:-3 / analyse=0x1:0x131 / me=umh / subme=11 / psy=1 / psy_rd=1.00:0.20 / mixed_ref=1 / me_range=32 / chroma_me=1 / trellis=2 / 8x8dct=0 / cqm=0 / deadzone=21,11 / fast_pskip=1 / chroma_qp_offset=-3 / threads=12 / lookahead_threads=3 / sliced_threads=0 / nr=0 / decimate=1 / interlaced=0 / bluray_compat=0 / constrained_intra=0 / bframes=11 / b_pyramid=2 / b_adapt=2 / b_bias=11 / direct=3 / weightb=1 / open_gop=0 / weightp=2 / keyint=250 / keyint_min=25 / scenecut=60 / intra_refresh=0 / rc_lookahead=40 / rc=2pass / mbtree=1 / bitrate=2500 / ratetol=1.0 / qcomp=0.60 / qpmin=1 / qpmax=69 / qpstep=4 / cplxblur=20.0 / qblur=0.5 / ip_ratio=1.40 / aq=1:1.00
Language : English
Default : Yes
Forced : No
Color range : Limited
Color primaries : BT.709
Transfer characteristics : BT.709
Matrix coefficients : BT.709
ENCODING_INFO : x264 - core 112 - H.264/MPEG-4 AVC codec - Copyleft 2003-2010 - http://www.videolan.org/x264.html - options: cabac=1 ref=2 deblock=1:0:0 analyse=0x1:0x111 me=hex subme=6 psy=1 psy_rd=1.00:0.00 mixed_ref=0 me_range=16 chroma_me=1 trellis=0 8x8dct=0 cqm=0 deadzone=21,11 fast_pskip=1 chroma_qp_offset=-2 threads=12 sliced_threads=0 nr=0 decimate=1 interlaced=0 constrained_intra=0 bframes=2 b_pyramid=2 b_adapt=1 b_bias=0 direct=1 weightb=0 open_gop=0 weightp=2 keyint=300 keyint_min=29 scenecut=40 intra_refresh=0 rc_lookahead=40 rc=2pass mbtree=1 bitrate=3822 ratetol=1.0 qcomp=0.60 qpmin=3 qpmax=51 qpstep=4 cplxblur=20.0 qblur=0.5 ip_ratio=1.40 aq=1:1.00
DURATION : 01:23:32.445000000

Audio #1
ID : 2
Format : AC-3
Format/Info : Audio Coding 3
Mode extension : CM (complete main)
Format settings, Endianness : Big
Codec ID : A_AC3
Duration : 1h 23mn
Bit rate mode : Constant
Bit rate : 192 Kbps
Channel(s) : 2 channels
Channel positions : Front: L R
Sampling rate : 48.0 KHz
Bit depth : 16 bits
Compression mode : Lossy
Stream size : 115 MiB (7%)
Title : Lord32x
Language : Russian
Default : Yes
Forced : Yes
DURATION : 01:23:32.480000000

Audio #2
ID : 3
Format : AC-3
Format/Info : Audio Coding 3
Mode extension : CM (complete main)
Format settings, Endianness : Big
Codec ID : A_AC3
Duration : 1h 23mn
Bit rate mode : Constant
Bit rate : 192 Kbps
Channel(s) : 2 channels
Channel positions : Front: L R
Sampling rate : 48.0 KHz
Bit depth : 32 bits
Compression mode : Lossy
Stream size : 115 MiB (7%)
Title : Original
Language : English
Default : Yes
Forced : No
DURATION : 01:23:32.192000000

Menu
00:00:00.000 : :Chapter 1
00:06:00.000 : :Chapter 2
00:12:00.000 : :Chapter 3
00:18:00.000 : :Chapter 4
00:24:00.000 : :Chapter 5
00:30:00.000 : :Chapter 6
00:36:00.000 : :Chapter 7
00:42:00.000 : :Chapter 8
00:48:00.000 : :Chapter 9
00:54:00.000 : :Chapter 10
01:00:00.000 : :Chapter 11
01:06:00.000 : :Chapter 12
01:12:00.000 : :Chapter 13
01:18:00.000 : :Chapter 14


Релиз от: pic
pic


Информация
Информация Скриншоты Пиры Скачавшие Список файлов
Залил Оценка Просмотров Скачан Файлов
АРХАНГЕЛ 0 23471

Теги
драма, комедия

Похожие раздачи

Любовь без правил (2016) CAMRip 1.37 GB

Любовь и дружба (2016) WEB-DL 1080p 2.56 GB

Любовь и дружба (2016) WEB-DL 720p 2.79 GB

Любовь и дружба (2016) WEB-DLRip 1.37 GB

Любовь не по размеру (2016) WEB-DL 1080p | Лицензия 3.15 GB

Любовь не по размеру (2016) WEB-DLRip | Лицензия 1.45 GB

Любовь не по размеру / Un homme a la hauteur (2016) WEB-DL-AVC | D | iTunes 1.90 GB

Я оставляю вам любовь (1-8 серии из 8) (2016) SATRip 4.28 GB

Любовь вне конкурса (1-4 серии из 4) (2016) WEB-DL 720p 3.24 GB

Любовь вне конкурса (1-4 серии из 4) (2015) WEB-DLRip 2.15 GB

Больше похожих раздач →

Список комментариев
Комментарии отсутствуют

Добавить комментарий
Внимание
Гости не могут оставлять комментарии, авторизуйтесь.

Панель навигации

ПОПУЛЯРНЫЕ РАЗДАЧИ
скачать торрент Ледокол (2016) WEB-DLRip | iTunesскачать торрент Доктор Стрэндж (2016) TS
скачать торрент Ледокол (2016) WEB-DL 1080p | iTunesскачать торрент Дуэлянт (2016) CAMRip
скачать торрент Отряд самоубийц (2016) BDRip 1080p | Расширeнная версия | iTunesскачать торрент Джейсон Борн (2016) HDTV 720p | Чистый звук
скачать торрент Первый мститель: Противостояние (2016) BDRip | IMAX Edition | iTunesскачать торрент Тарзан. Легенда (2016) HDRip | iTunes
скачать торрент Dark Souls 3: Deluxe Edition (2016) PC | RePack от xatabскачать торрент Люди Икс: Апокалипсис / X-Men: Apocalypse (2016) BDRip 720p | Лицензия

Будь с нами!


Наши друзья 



Информация, расположенная на данном сервере, предназначена исключительно для частного использования и не может быть загружена/перенесена на другой компьютер. Ни владелец сайта, ни хостинг-провайдер, ни любые другие физические или юридические лица не могут нести никакой отвественностиза любое использование материалов данного сайта.

© 2012-2016 TRACK.KG.