Загрузить Adobe Flash Player
Как тут качать? :: Как встать на раздачу?

Скачать / Download torrent  
Хэш: 8127f8d0f3adfceb9dd38ac2c354e9f9f15e1345
Добавлен: 16 июля 2016 в 08:52:54
Категория: Фильмы » Зарубежное кино » Комедии / Пародийные
Размер: 2.19 GB
Проверил: АРХАНГЕЛ 16 июля 2016 в 08:52:54

Раздают: 51 Качают: 30

Помнишь меня? / Ti ricordi di me? (2014) BDRip-AVC | P

pic

Информация о фильме
Название: Помнишь меня?
Оригинальное название: Ti ricordi di me?
Год выхода: 2014
Жанр: мелодрама, комедия

Режиссер: Роландо Равелло
В ролях: Амбра Анджолини, Эдоардо Лео, Паоло Калабрези, Сьюзи Лауде, Пиа Энглберс, Эннио Фантастичини, Лоренцо Джоиелли, Анжелика Каваллари

О фильме: Роберто, клептоман с богатым воображением, и Беа, страдающая от расстройства сна и провалов в памяти, случайно встретились у дома своего врача. Маленькие кражи, обмороки и погони — вот фон, на котором протекает их забавная любовная история.

Страна: Италия / Lotus Productions
Продолжительность: 01:32:21
Перевод: Профессиональный многоголосый [СПД]

pic pic pic pic
pic
Файл
Качество: BDRip-AVC
Формат: MKV
Видео: AVC, 2500 Kb/s, 1024x424
Звук: Russian / Italian: AC3, 448 Kb/s (6 ch)

Format : Matroska
Format version : Version 4 / Version 2
File size : 2.19 GiB
Duration : 1h 32mn
Overall bit rate : 3 401 Kbps
Movie name : Rip by basma4i
Writing application : XviD4PSP 7.0.279 DAILY
Writing library : Lavf57.25.100
ENCODING_INFO : MATROSKA,WEBM > MKV / AC3 > AC3 CBR 480kbps / AC3 > AC3 CBR 480kbps / H264 > X264 VBR-2P 2500kbps Произвольный
MIMETYPE : image/png
FILENAME : cover.png
DURATION : 00:00:00.000000000
Attachements : cover.png

Video
ID : 1
Format : AVC
Format/Info : Advanced Video Codec
Format profile : Main@L4.1
Format settings, CABAC : No
Format settings, ReFrames : 11 frames
Codec ID : V_MPEG4/ISO/AVC
Bit rate : 2 500 Kbps
Width : 1 024 pixels
Height : 424 pixels
Display aspect ratio : 2.40:1
Original display aspect ratio : 2.40:1
Frame rate mode : Variable
Original frame rate : 23.976 fps
Color space : YUV
Chroma subsampling : 4:2:0
Bit depth : 8 bits
Scan type : Progressive
Bits/(Pixel*Frame) : 0.240
Writing library : x264 core 148 r2705M 3f5ed56
Encoding settings : cabac=0 / ref=11 / deblock=0:-3:-3 / analyse=0x1:0x131 / me=umh / subme=11 / psy=1 / psy_rd=1.00:0.20 / mixed_ref=1 / me_range=32 / chroma_me=1 / trellis=2 / 8x8dct=0 / cqm=0 / deadzone=21,11 / fast_pskip=1 / chroma_qp_offset=-3 / threads=12 / lookahead_threads=3 / sliced_threads=0 / nr=0 / decimate=1 / interlaced=0 / bluray_compat=0 / constrained_intra=0 / bframes=11 / b_pyramid=2 / b_adapt=2 / b_bias=11 / direct=3 / weightb=1 / open_gop=0 / weightp=2 / keyint=230 / keyint_min=23 / scenecut=60 / intra_refresh=0 / rc_lookahead=40 / rc=2pass / mbtree=1 / bitrate=2500 / ratetol=1.0 / qcomp=0.60 / qpmin=1 / qpmax=69 / qpstep=4 / cplxblur=20.0 / qblur=0.5 / ip_ratio=1.40 / aq=1:1.00
Default : Yes
Forced : No
Color range : Limited
Color primaries : BT.709
Transfer characteristics : BT.709
Matrix coefficients : BT.709
ENCODING_INFO : x264 -
DURATION : 01:32:20.999000000

Audio #1
ID : 2
Format : AC-3
Format/Info : Audio Coding 3
Mode extension : CM (complete main)
Format settings, Endianness : Big
Codec ID : A_AC3
Duration : 1h 32mn
Bit rate mode : Constant
Bit rate : 448 Kbps
Channel(s) : 6 channels
Channel positions : Front: L C R, Side: L R, LFE
Sampling rate : 48.0 KHz
Bit depth : 32 bits
Compression mode : Lossy
Stream size : 296 MiB (13%)
Language : Russian
Default : Yes
Forced : No
DURATION : 01:32:21.024000000

Audio #2
ID : 3
Format : AC-3
Format/Info : Audio Coding 3
Mode extension : CM (complete main)
Format settings, Endianness : Big
Codec ID : A_AC3
Duration : 1h 32mn
Bit rate mode : Constant
Bit rate : 448 Kbps
Channel(s) : 6 channels
Channel positions : Front: L C R, Side: L R, LFE
Sampling rate : 48.0 KHz
Bit depth : 32 bits
Compression mode : Lossy
Stream size : 296 MiB (13%)
Language : Italian
Default : No
Forced : No
DURATION : 01:32:21.024000000


Релиз от: pic
pic


Информация
Информация Скриншоты Пиры Скачавшие Список файлов
Залил Оценка Просмотров Скачан Файлов
АРХАНГЕЛ 0 23891

Теги
мелодрама, комедия

Похожие раздачи

Поиск не дал результатов.Больше похожих раздач →

Список комментариев
Комментарии отсутствуют

Добавить комментарий
Внимание
Гости не могут оставлять комментарии, авторизуйтесь.

Панель навигации

ПОПУЛЯРНЫЕ РАЗДАЧИ
скачать торрент Ледокол (2016) WEB-DLRip | iTunesскачать торрент Доктор Стрэндж (2016) TS
скачать торрент Ледокол (2016) WEB-DL 1080p | iTunesскачать торрент Дуэлянт (2016) CAMRip
скачать торрент Отряд самоубийц (2016) BDRip 1080p | Расширeнная версия | iTunesскачать торрент Джейсон Борн (2016) HDTV 720p | Чистый звук
скачать торрент Первый мститель: Противостояние (2016) BDRip | IMAX Edition | iTunesскачать торрент Тарзан. Легенда (2016) HDRip | iTunes
скачать торрент Dark Souls 3: Deluxe Edition (2016) PC | RePack от xatabскачать торрент Люди Икс: Апокалипсис / X-Men: Apocalypse (2016) BDRip 720p | Лицензия

Будь с нами!


Наши друзья 



Информация, расположенная на данном сервере, предназначена исключительно для частного использования и не может быть загружена/перенесена на другой компьютер. Ни владелец сайта, ни хостинг-провайдер, ни любые другие физические или юридические лица не могут нести никакой отвественностиза любое использование материалов данного сайта.

© 2012-2016 TRACK.KG.