Загрузить Adobe Flash Player
Как тут качать? :: Как встать на раздачу?

Скачать / Download torrent  
Хэш: 3abe2458351ee23b97dbe9cc0ea96b5ec1e63f8c
Добавлен: 5 июля 2016 в 15:22:48
Категория: Фильмы » Фильмы HD / BD
Размер: 2.25 GB
Проверил: АРХАНГЕЛ 5 июля 2016 в 15:22:48

Раздают: 81 Качают: 31

Парк резни / Carnage Park (2016) WEB-DL 720p | L1

pic

Информация о фильме
Название: Парк резни
Оригинальное название: Carnage Park
Год выхода: 2016
Жанр: ужасы, боевик, триллер, криминал

Режиссер: Мики Китинг
В ролях: Эшли Белл, Пэт Хили, Джеймс Хеберт, Майкл Виллар, Боб Бэнкрофт, Ларри Фессенден, Энди Грин, Алан Рак, Грэхэм Скиппер, Дэрби Стэнчфилд

Слоган: «Здесь у нас, Бог не выбрать ни одного избранного»

О фильме: После неудачной попытки непродуманного ограбления в одном из пустынных городов Калифорнии, два преступника пытаются скрыться с заложником. Это вынуждает местных представителей закона пуститься в опасную погоню.

Страна: США / Diablo Entertainment (II)
Продолжительность: 01:20: 52
Перевод: Любительский (одноголосый) [Хихикающий доктор]

pic pic pic pic pic
pic
Файл
Качество: WEB-DL 720p
Формат: MKV
Видео: AVC, 3322 Kb/s, 1280 x 528
Звук: Russian: AC3, 192 Kb/s (2 ch), English: AC3, 384 Kb/s (6 ch),
Субтитры: English

Format : Matroska
Format version : Version 4 / Version 2
File size : 2.25 GiB
Duration : 1h 20mn
Overall bit rate : 3 977 Kbps
Movie name : Release by basma4i
Encoded date : UTC 2016-07-05 08:24:58
Writing application : mkvmerge v8.2.0 ('World of Adventure') 64bit
Writing library : libebml v1.3.1 + libmatroska v1.4.2
DURATION : 01:18:31.606000000
NUMBER_OF_FRAMES : 589
NUMBER_OF_BYTES : 18544
_STATISTICS_WRITING_APP : mkvmerge v8.2.0 ('World of Adventure') 64bit
_STATISTICS_WRITING_DATE_UTC : 2016-07-05 08:24:58
_STATISTICS_TAGS : BPS DURATION NUMBER_OF_FRAMES NUMBER_OF_BYTES

Video
ID : 1
Format : AVC
Format/Info : Advanced Video Codec
Format profile : High@L4.1
Format settings, CABAC : Yes
Format settings, ReFrames : 4 frames
Codec ID : V_MPEG4/ISO/AVC
Duration : 1h 20mn
Bit rate : 3 322 Kbps
Width : 1 280 pixels
Height : 528 pixels
Display aspect ratio : 2.40:1
Frame rate mode : Constant
Frame rate : 23.976 fps
Color space : YUV
Chroma subsampling : 4:2:0
Bit depth : 8 bits
Scan type : Progressive
Bits/(Pixel*Frame) : 0.205
Stream size : 1.88 GiB (84%)
Language : English
Default : Yes
Forced : No

Audio #1
ID : 2
Format : AC-3
Format/Info : Audio Coding 3
Mode extension : CM (complete main)
Format settings, Endianness : Big
Codec ID : A_AC3
Duration : 1h 20mn
Bit rate mode : Constant
Bit rate : 192 Kbps
Channel(s) : 2 channels
Channel positions : Front: L R
Sampling rate : 48.0 KHz
Compression mode : Lossy
Stream size : 111 MiB (5%)
Language : Russian
Default : Yes
Forced : No

Audio #2
ID : 3
Format : AC-3
Format/Info : Audio Coding 3
Mode extension : CM (complete main)
Format settings, Endianness : Big
Codec ID : A_AC3
Duration : 1h 20mn
Bit rate mode : Constant
Bit rate : 384 Kbps
Channel(s) : 6 channels
Channel positions : Front: L C R, Side: L R, LFE
Sampling rate : 48.0 KHz
Compression mode : Lossy
Stream size : 222 MiB (10%)
Language : English
Default : No
Forced : No

Text
ID : 4
Format : UTF-8
Codec ID : S_TEXT/UTF8
Codec ID/Info : UTF-8 Plain Text
Language : English
Default : Yes
Forced : No

Menu
00:00:00.000 : en:1
00:11:12.000 : en:2
00:23:12.000 : en:3
00:32:38.000 : en:4
00:42:41.000 : en:5
00:55:31.000 : en:6
01:09:56.000 : en:7
01:17:19.000 : en:8


Релиз от: pic
pic


Информация
Информация Скриншоты Пиры Скачавшие Список файлов
Залил Оценка Просмотров Скачан Файлов
АРХАНГЕЛ 0 21651

Теги
ужасы, боевик, триллер, криминал

Похожие раздачи

Поиск не дал результатов.Больше похожих раздач →

Список комментариев
Комментарии отсутствуют

Добавить комментарий
Внимание
Гости не могут оставлять комментарии, авторизуйтесь.

Панель навигации

ПОПУЛЯРНЫЕ РАЗДАЧИ
скачать торрент Ледокол (2016) WEB-DLRip | iTunesскачать торрент Доктор Стрэндж (2016) TS
скачать торрент Ледокол (2016) WEB-DL 1080p | iTunesскачать торрент Дуэлянт (2016) CAMRip
скачать торрент Отряд самоубийц (2016) BDRip 1080p | Расширeнная версия | iTunesскачать торрент Джейсон Борн (2016) HDTV 720p | Чистый звук
скачать торрент Первый мститель: Противостояние (2016) BDRip | IMAX Edition | iTunesскачать торрент Тарзан. Легенда (2016) HDRip | iTunes
скачать торрент Dark Souls 3: Deluxe Edition (2016) PC | RePack от xatabскачать торрент Люди Икс: Апокалипсис / X-Men: Apocalypse (2016) BDRip 720p | Лицензия

Будь с нами!


Наши друзья 



Информация, расположенная на данном сервере, предназначена исключительно для частного использования и не может быть загружена/перенесена на другой компьютер. Ни владелец сайта, ни хостинг-провайдер, ни любые другие физические или юридические лица не могут нести никакой отвественностиза любое использование материалов данного сайта.

© 2012-2016 TRACK.KG.