Загрузить Adobe Flash Player
Как тут качать? :: Как встать на раздачу?

Скачать / Download torrent  
Хэш: 21ee0c49ae900d1e6388716ce7db2729fb2a190d
Добавлен: 2 июля 2016 в 06:13:12
Категория: Фильмы » Зарубежное кино » Триллеры / Криминал
Размер: 2.73 GB
Проверил: АРХАНГЕЛ 2 июля 2016 в 06:13:12

Раздают: 0 Качают: 0

Большой всплеск / A Bigger Splash (2015) BDRip-AVC | D | Чистый звук

pic

Информация о фильме
Название: Большой всплеск
Оригинальное название: A Bigger Splash
Год выхода: 2015
Жанр: триллер, криминал, детектив

Режиссер: Лука Гуаданьино
В ролях: Тильда Суинтон, Маттиас Шонартс, Рэйф Файнс, Дакота Джонсон, Коррадо Гуццанти, Алессандро Феррара, Дэвид Маддалена, Аврора Клеман

Слоган: «Опасный флирт, убийственная страсть»

О фильме: Рок-звезда Марианна Лэйн и ее бойфренд наслаждаются отдыхом на юге Италии. Островную идиллию пары нарушает визит Гарри, бывшего любовника Марианны, и его взрослой дочери. Легкомысленная игра, невинный флирт, настоящая страсть и всепоглощающая ревность обернутся для героев смертельной опасностью.

Страна: Италия, Франция / Cota Film, Frenesy Film Company, Regione Siciliana, Sicilia Film Commission, Studio Canal
Продолжительность: 02:04:18
Перевод: Профессиональный (полное дублирование) [Чистый звук]

pic pic pic pic pic
pic
Файл
Качество: BDRip-AVC
Формат: MKV
Видео: AVC, 2500 Kb/s, 1024x552
Звук: Russian: AC3, 384 Kb/s (2 ch), English: AC3, 448 Kb/s (6 ch)
Субтитры: English
Дополнительно: Сохранены оригинальные главы

General
Unique ID : 57480305381215211991720734759496728081 (0x2B3E4DDBC438B12693CB939B2E103E11)
Complete name : H:\ДИСК\01.ФИЛЬМЫ\Большой всплеск A Bigger Splash (2015)\6ol1sho1.Bplesk.2015.D.BDRip-AVC.mkv
Format : Matroska
Format version : Version 4 / Version 2
File size : 2.73 GiB
Duration : 2h 4mn
Overall bit rate : 3 146 Kbps
Movie name : Release by basma4i
Writing application : XviD4PSP 7.0.277 DAILY
Writing library : Lavf57.25.100
ENCODING_INFO : MATROSKA,WEBM > MKV / H264 > X264 VBR-2P 2500kbps Произвольный / AC3 > AC3 CBR 192kbps / AC3 > AC3 CBR 480kbps
MIMETYPE : image/jpeg
FILENAME : cover.jpg
DURATION : 00:00:00.000000000
Attachements : cover.jpg

Video
ID : 1
Format : AVC
Format/Info : Advanced Video Codec
Format profile : High@L4.1
Format settings, CABAC : Yes
Format settings, ReFrames : 11 frames
Codec ID : V_MPEG4/ISO/AVC
Bit rate : 2 500 Kbps
Width : 1 024 pixels
Height : 552 pixels
Display aspect ratio : 1.85:1
Frame rate mode : Variable
Original frame rate : 24.000 fps
Color space : YUV
Chroma subsampling : 4:2:0
Bit depth : 8 bits
Scan type : Progressive
Bits/(Pixel*Frame) : 0.184
Writing library : x264 core 148 r2705M 3f5ed56
Encoding settings : cabac=1 / ref=11 / deblock=1:-3:-3 / analyse=0x3:0x133 / me=umh / subme=11 / psy=1 / psy_rd=1.00:0.20 / mixed_ref=1 / me_range=32 / chroma_me=1 / trellis=2 / 8x8dct=1 / cqm=0 / deadzone=21,11 / fast_pskip=1 / chroma_qp_offset=-3 / threads=12 / lookahead_threads=3 / sliced_threads=0 / nr=0 / decimate=1 / interlaced=0 / bluray_compat=0 / constrained_intra=0 / bframes=11 / b_pyramid=2 / b_adapt=2 / b_bias=0 / direct=3 / weightb=1 / open_gop=0 / weightp=2 / keyint=240 / keyint_min=24 / scenecut=40 / intra_refresh=0 / rc_lookahead=40 / rc=2pass / mbtree=1 / bitrate=2500 / ratetol=1.0 / qcomp=0.60 / qpmin=1 / qpmax=69 / qpstep=4 / cplxblur=20.0 / qblur=0.5 / ip_ratio=1.40 / aq=1:1.00
Language : English
Default : Yes
Forced : No
ENCODING_INFO : x264 - core 146 r2538 121396c - H.264/MPEG-4 AVC codec - Copyleft 2003-2015 - http://www.videolan.org/x264.html - options: cabac=1 ref=9 deblock=1:-3:-3 analyse=0x3:0x133 me=umh subme=10 psy=1 psy_rd=1.00:0.00 mixed_ref=1 me_range=32 chroma_me=1 trellis=2 8x8dct=1 cqm=0 deadzone=21,11 fast_pskip=0 chroma_qp_offset=-2 threads=6 lookahead_threads=1 sliced_threads=0 nr=0 decimate=0 interlaced=0 bluray_compat=0 constrained_intra=0 bframes=8 b_pyramid=2 b_adapt=2 b_bias=0 direct=3 weightb=1 open_gop=0 weightp=2 keyint=250 keyint_min=24 scenecut=40 intra_refresh=0 rc=crf mbtree=0 crf=17.7 qcomp=0.60 qpmin=0 qpmax=69 qpstep=4 ip_ratio=1.40 pb_ratio=1.30 aq=3:0.80
DURATION : 02:04:18.047000000

Audio #1
ID : 2
Format : AC-3
Format/Info : Audio Coding 3
Mode extension : CM (complete main)
Format settings, Endianness : Big
Codec ID : A_AC3
Duration : 2h 4mn
Bit rate mode : Constant
Bit rate : 192 Kbps
Channel(s) : 2 channels
Channel positions : Front: L R
Sampling rate : 48.0 KHz
Bit depth : 32 bits
Compression mode : Lossy
Stream size : 171 MiB (6%)
Language : Russian
Default : Yes
Forced : No
DURATION : 02:04:18.112000000

Audio #2
ID : 3
Format : AC-3
Format/Info : Audio Coding 3
Mode extension : CM (complete main)
Format settings, Endianness : Big
Codec ID : A_AC3
Duration : 2h 4mn
Bit rate mode : Constant
Bit rate : 448 Kbps
Channel(s) : 6 channels
Channel positions : Front: L C R, Side: L R, LFE
Sampling rate : 48.0 KHz
Bit depth : 32 bits
Compression mode : Lossy
Stream size : 398 MiB (14%)
Language : English
Default : No
Forced : No
DURATION : 02:04:18.080000000

Text
ID : 4
Format : UTF-8
Codec ID : S_TEXT/UTF8
Codec ID/Info : UTF-8 Plain Text
Language : English
Default : Yes
Forced : Yes
DURATION : 01:50:00.445000000

Menu
00:00:00.000 : :00:00:00.000
00:10:12.333 : :00:10:12.333
00:19:03.250 : :00:19:03.250
00:29:16.667 : :00:29:16.667
00:39:19.875 : :00:39:19.875
00:49:19.208 : :00:49:19.208
01:01:37.750 : :01:01:37.750
01:11:13.707 : :01:11:13.708
01:21:06.167 : :01:21:06.167
01:30:41.125 : :01:30:41.125
01:40:09.708 : :01:40:09.708
02:00:17.417 : :02:00:17.417


Релиз от: pic
pic


Информация
Информация Скриншоты Пиры Скачавшие Список файлов
Залил Оценка Просмотров Скачан Файлов
АРХАНГЕЛ 0 211121

Теги
триллер, криминал, детектив

Похожие раздачи

Большой всплеск (2015) BDRip 1080p | Лицензия 14.80 GB

Большой всплеск (2015) BDRip 720p | Лицензия 5.36 GB

Большой всплеск (2015) HDRip | Лицензия 1.46 GB

Больше похожих раздач →

Список комментариев
Комментарии отсутствуют

Добавить комментарий
Внимание
Гости не могут оставлять комментарии, авторизуйтесь.

Панель навигации

ПОПУЛЯРНЫЕ РАЗДАЧИ
скачать торрент Ледокол (2016) WEB-DLRip | iTunesскачать торрент Доктор Стрэндж (2016) TS
скачать торрент Ледокол (2016) WEB-DL 1080p | iTunesскачать торрент Дуэлянт (2016) CAMRip
скачать торрент Отряд самоубийц (2016) BDRip 1080p | Расширeнная версия | iTunesскачать торрент Джейсон Борн (2016) HDTV 720p | Чистый звук
скачать торрент Первый мститель: Противостояние (2016) BDRip | IMAX Edition | iTunesскачать торрент Тарзан. Легенда (2016) HDRip | iTunes
скачать торрент Dark Souls 3: Deluxe Edition (2016) PC | RePack от xatabскачать торрент Люди Икс: Апокалипсис / X-Men: Apocalypse (2016) BDRip 720p | Лицензия

Будь с нами!


Наши друзья 



Информация, расположенная на данном сервере, предназначена исключительно для частного использования и не может быть загружена/перенесена на другой компьютер. Ни владелец сайта, ни хостинг-провайдер, ни любые другие физические или юридические лица не могут нести никакой отвественностиза любое использование материалов данного сайта.

© 2012-2016 TRACK.KG.