Загрузить Adobe Flash Player
Как тут качать? :: Как встать на раздачу?

Скачать / Download torrent  
Хэш: 3b07acdf8185c38bed8b043dccd1f3d8ffc2aefd
Добавлен: 29 июня 2016 в 12:07:00
Категория: Фильмы » Зарубежное кино » Мелодрамы / Драмы
Размер: 2.71 GB
Проверил: АРХАНГЕЛ 29 июня 2016 в 12:07:00

Раздают: 29 Качают: 33

Высотка / High-Rise (2015) WEB-DLRip-AVC | iTunes

pic

Информация о фильме
Название: Высотка
Оригинальное название: High-Rise
Год выхода: 2015
Жанр: драма

Режиссер: Бен Уитли
В ролях: Том Хиддлстон, Джереми Айронс, Сиенна Миллер, Люк Эванс, Элизабет Мосс, Джеймс Пьюрфой, Кили Хоуз, Питер Фердинандо, Сиенна Гиллори, Рис Шерсмит

Слоган: «Добро пожаловать в мир будущего»

О фильме: Добро пожаловать в мир будущего.
Новый жилой дом в современном микрорайоне, кажется, предлагает своим жителям все, что необходимо для комфортной жизни - от супермаркета и салонов красоты до бассейнов и начальной школы. Но замкнутая инфраструктура и близкое соседство людей разных социальных уровней приводит к росту напряжения во взаимоотношениях жителей разных этажей. Накал ненависти стремительно нарастает, и вот уже люди разбиваются на враждующие кланы, устраивая смертельные битвы за лестницы, лифты и запасы еды.

Страна: Великобритания, Бельгия / British Film Institute (BFI), Film4, HanWay Films, Ingenious Media…
Продолжительность: 01:58:50
Перевод: Дубляж [iTunes]

pic pic pic pic pic
pic
Файл
Качество: WEB-DLRip-AVC
Формат: MKV
Видео: AVC, 2500 Kb/s, 1024x432
Звук: Russian / English: AC3, 384 Kb/s (6 ch)
Субтитры: English
Дополнительно: Сохранены оригинальные главы

General
Unique ID : 230968908875334676377085343652759650635 (0xADC2FE68886BC49896EDCFEB0156C14B)
Complete name : H:\ДИСК\01.ФИЛЬМЫ\Высотка High-Rise (2015)\BblCoTKa.2015.WEB-DL-AVC.mkv
Format : Matroska
Format version : Version 4 / Version 2
File size : 2.71 GiB
Duration : 1h 58mn
Overall bit rate : 3 270 Kbps
Movie name : Release by basma4i
Encoded date : UTC 2016-06-28 21:45:40
Writing application : mkvmerge v8.2.0 ('World of Adventure') 64bit
Writing library : Lavf57.25.100
ENCODING_INFO : MATROSKA,WEBM > MKV / H264 > X264 VBR-2P 2500kbps Произвольный / AC3 > AC3 CBR 384kbps / AC3 > AC3 CBR 384kbps

Video
ID : 1
Format : AVC
Format/Info : Advanced Video Codec
Format profile : High@L4.1
Format settings, CABAC : Yes
Format settings, ReFrames : 11 frames
Codec ID : V_MPEG4/ISO/AVC
Bit rate : 2 500 Kbps
Width : 1 024 pixels
Height : 432 pixels
Display aspect ratio : 2.40:1
Original display aspect ratio : 2.40:1
Frame rate mode : Variable
Original frame rate : 23.976 fps
Color space : YUV
Chroma subsampling : 4:2:0
Bit depth : 8 bits
Scan type : Progressive
Bits/(Pixel*Frame) : 0.236
Writing library : x264 core 148 r2705M 3f5ed56
Encoding settings : cabac=1 / ref=11 / deblock=1:-3:-3 / analyse=0x3:0x133 / me=umh / subme=11 / psy=1 / psy_rd=1.00:0.20 / mixed_ref=1 / me_range=32 / chroma_me=1 / trellis=2 / 8x8dct=1 / cqm=0 / deadzone=21,11 / fast_pskip=1 / chroma_qp_offset=-3 / threads=12 / lookahead_threads=3 / sliced_threads=0 / nr=0 / decimate=1 / interlaced=0 / bluray_compat=0 / constrained_intra=0 / bframes=10 / b_pyramid=2 / b_adapt=2 / b_bias=0 / direct=3 / weightb=1 / open_gop=0 / weightp=2 / keyint=230 / keyint_min=23 / scenecut=40 / intra_refresh=0 / rc_lookahead=40 / rc=2pass / mbtree=1 / bitrate=2500 / ratetol=1.0 / qcomp=0.60 / qpmin=0 / qpmax=69 / qpstep=4 / cplxblur=20.0 / qblur=0.5 / ip_ratio=1.40 / aq=1:1.00
Language : English
Default : Yes
Forced : No
Color range : Limited
Color primaries : BT.709
Transfer characteristics : BT.709
Matrix coefficients : BT.709
DURATION : 01:58:49.961000000
NUMBER_OF_FRAMES : 170948
NUMBER_OF_BYTES : 2227939581
_STATISTICS_WRITING_APP : mkvmerge v8.2.0 ('World of Adventure') 64bit
_STATISTICS_WRITING_DATE_UTC : 2016-06-28 21:45:40
_STATISTICS_TAGS : BPS DURATION NUMBER_OF_FRAMES NUMBER_OF_BYTES

Audio #1
ID : 2
Format : AC-3
Format/Info : Audio Coding 3
Mode extension : CM (complete main)
Format settings, Endianness : Big
Codec ID : A_AC3
Duration : 1h 58mn
Bit rate mode : Constant
Bit rate : 384 Kbps
Channel(s) : 6 channels
Channel positions : Front: L C R, Side: L R, LFE
Sampling rate : 48.0 KHz
Compression mode : Lossy
Stream size : 326 MiB (12%)
Title : [DUB] DD 5.1 @ 384 kbps
Language : Russian
Default : Yes
Forced : No
DURATION : 01:58:50.400000000
NUMBER_OF_FRAMES : 222825
NUMBER_OF_BYTES : 342259200
_STATISTICS_WRITING_APP : mkvmerge v8.2.0 ('World of Adventure') 64bit
_STATISTICS_WRITING_DATE_UTC : 2016-06-28 21:45:40
_STATISTICS_TAGS : BPS DURATION NUMBER_OF_FRAMES NUMBER_OF_BYTES

Audio #2
ID : 3
Format : AC-3
Format/Info : Audio Coding 3
Mode extension : CM (complete main)
Format settings, Endianness : Big
Codec ID : A_AC3
Duration : 1h 58mn
Bit rate mode : Constant
Bit rate : 384 Kbps
Channel(s) : 6 channels
Channel positions : Front: L C R, Side: L R, LFE
Sampling rate : 48.0 KHz
Compression mode : Lossy
Stream size : 326 MiB (12%)
Title : [ORIGINAL] DD 5.1 @ 384 kbps
Language : English
Default : No
Forced : No
DURATION : 01:58:50.112000000
NUMBER_OF_FRAMES : 222816
NUMBER_OF_BYTES : 342245376
_STATISTICS_WRITING_APP : mkvmerge v8.2.0 ('World of Adventure') 64bit
_STATISTICS_WRITING_DATE_UTC : 2016-06-28 21:45:40
_STATISTICS_TAGS : BPS DURATION NUMBER_OF_FRAMES NUMBER_OF_BYTES

Text
ID : 4
Format : UTF-8
Codec ID : S_TEXT/UTF8
Codec ID/Info : UTF-8 Plain Text
Title : Full-length
Language : English
Default : Yes
Forced : No
DURATION : 01:52:48.960000000
NUMBER_OF_FRAMES : 1134
NUMBER_OF_BYTES : 36381
_STATISTICS_WRITING_APP : mkvmerge v8.2.0 ('World of Adventure') 64bit
_STATISTICS_WRITING_DATE_UTC : 2016-06-28 21:45:40
_STATISTICS_TAGS : BPS DURATION NUMBER_OF_FRAMES NUMBER_OF_BYTES

Menu
00:00:00.000 : :1
00:02:39.701 : :2
00:13:18.631 : :3
00:20:10.000 : :4
00:27:40.075 : :5
00:35:20.076 : :6
00:44:45.766 : :7
00:50:14.052 : :8
00:57:39.914 : :9
01:04:54.515 : :10
01:13:29.571 : :11
01:21:39.185 : :12
01:30:36.513 : :13
01:40:59.886 : :14
01:44:20.002 : :15
01:52:40.252 : :16


Релиз от: pic
pic


Информация
Информация Скриншоты Пиры Скачавшие Список файлов
Залил Оценка Просмотров Скачан Файлов
АРХАНГЕЛ +1 212141

Теги
драма

Похожие раздачи

Высотка (2015) BDRip 1080p | Лицензия 8.10 GB

Высотка / High-Rise (2015) BDRip 720p | Лицензия 4.53 GB

Высотка / High-Rise (2015) HDRip | Лицензия 1.46 GB

Больше похожих раздач →

Список комментариев
Комментарии отсутствуют

Добавить комментарий
Внимание
Гости не могут оставлять комментарии, авторизуйтесь.

Панель навигации

ПОПУЛЯРНЫЕ РАЗДАЧИ
скачать торрент Ледокол (2016) WEB-DLRip | iTunesскачать торрент Доктор Стрэндж (2016) TS
скачать торрент Ледокол (2016) WEB-DL 1080p | iTunesскачать торрент Дуэлянт (2016) CAMRip
скачать торрент Отряд самоубийц (2016) BDRip 1080p | Расширeнная версия | iTunesскачать торрент Джейсон Борн (2016) HDTV 720p | Чистый звук
скачать торрент Первый мститель: Противостояние (2016) BDRip | IMAX Edition | iTunesскачать торрент Тарзан. Легенда (2016) HDRip | iTunes
скачать торрент Dark Souls 3: Deluxe Edition (2016) PC | RePack от xatabскачать торрент Люди Икс: Апокалипсис / X-Men: Apocalypse (2016) BDRip 720p | Лицензия

Будь с нами!


Наши друзья 



Информация, расположенная на данном сервере, предназначена исключительно для частного использования и не может быть загружена/перенесена на другой компьютер. Ни владелец сайта, ни хостинг-провайдер, ни любые другие физические или юридические лица не могут нести никакой отвественностиза любое использование материалов данного сайта.

© 2012-2016 TRACK.KG.