Загрузить Adobe Flash Player
Как тут качать? :: Как встать на раздачу?

Скачать / Download torrent  
Хэш: 43bbbfb9f4bade33096bef8900142a07269392d9
Добавлен: 18 июня 2016 в 09:49:17
Категория: Фильмы » Зарубежное кино » Приключения / Семейные
Размер: 2.37 GB
Проверил: АРХАНГЕЛ 18 июня 2016 в 09:40:59

Раздают: 663 Качают: 172

Биркебейнеры / Birkebeinerne (2016) HDRip-AVC | P

pic

Информация о фильме
Название: Биркебейнеры
Оригинальное название: Birkebeinerne
Год выхода: 2016
Жанр: боевик, драма, приключения

Режиссер: Нильс Гёуп
В ролях: Кристофер Хивью, Пол Сверре Валхейм Хаген, Торбьорн Харр, Беньямин Хельстад, Стиг Хенрик Хофф, Еппе Леурсен, Николай Ли Каас, Адам Немет

О фильме: 1204 год, Норвегию раздирает гражданская война. Незаконнорожденного сына короля Хокона III Сверрессона и Инги из Вартейга хранят в глубокой тайне. Мальчик был внебрачным сыном короля и родился после его смерти, что спровоцировало кровавую междоусобицу. Биркебейнеры (ополчение, созданное его дедом, королем Сверре Сигурдсоном) признали мальчика наследником трона Норвегии. Однако католические священники объявили охоту на ребенка с целью его уничтожения.

В 1206 году группа вооруженных биркебейнеров помогла Инги и Хокону бежать на север под покровительством короля Инге Бордссона. По пути их небольшой отряд попал в снежную бурю, но два могучих воина, Торстейн Шевла и Шьервальд Шрукка, продолжали продвигаться на лыжах, неся ребенка на руках. Когда Хокона доставили в Тронхейм, король Инге взял его под своё покровительство.

Страна: Норвегия / Paradox Film 3
Продолжительность: 01:39:49
Перевод: Профессиональный (многоголосый) [СПД]

pic pic pic pic
pic
Файл
Качество: HDRip-AVC
Формат: MKV
Видео: AVC, 2500 Kb/s, 1024 x 440
Звук: Russian / Norwegian: AC3, 448 Kb/s (6 ch)

General
Unique ID : 146859086186947080449885648538813936700 (0x6E7C07FAB5B8C5798B239140233D343C)
Complete name : H:\ДИСК\01.ФИЛЬМЫ\Биркебейнеры Birkebeinerne 2016\Birkebeinerne.2016.MVO.BDRip.1O8OP_KOSHARA_encoded.mkv
Format : Matroska
Format version : Version 4 / Version 2
File size : 2.37 GiB
Duration : 1h 39mn
Overall bit rate : 3 401 Kbps
Writing application : XviD4PSP 7.0.274 DAILY
Writing library : Lavf57.25.100
ENCODING_INFO : MATROSKA,WEBM > MKV / H264 > X264 VBR-2P 2500kbps Произвольный / AC3 > AC3 CBR 480kbps / AC3 > AC3 CBR 480kbps
MIMETYPE : image/jpeg
FILENAME : cover.jpg
DURATION : 00:00:00.000000000
Attachements : cover.jpg

Video
ID : 1
Format : AVC
Format/Info : Advanced Video Codec
Format profile : High@L4.1
Format settings, CABAC : Yes
Format settings, ReFrames : 10 frames
Codec ID : V_MPEG4/ISO/AVC
Bit rate : 2 500 Kbps
Width : 1 024 pixels
Height : 440 pixels
Display aspect ratio : 2.40:1
Frame rate mode : Variable
Original frame rate : 24.000 fps
Color space : YUV
Chroma subsampling : 4:2:0
Bit depth : 8 bits
Scan type : Progressive
Bits/(Pixel*Frame) : 0.231
Writing library : x264 core 148 r2694M 3b70645
Encoding settings : cabac=1 / ref=10 / deblock=1:-3:-3 / analyse=0x3:0x133 / me=umh / subme=11 / psy=1 / psy_rd=1.00:0.20 / mixed_ref=1 / me_range=32 / chroma_me=1 / trellis=2 / 8x8dct=1 / cqm=0 / deadzone=21,11 / fast_pskip=1 / chroma_qp_offset=-3 / threads=12 / lookahead_threads=2 / sliced_threads=0 / nr=0 / decimate=1 / interlaced=0 / bluray_compat=0 / constrained_intra=0 / bframes=8 / b_pyramid=2 / b_adapt=2 / b_bias=0 / direct=3 / weightb=1 / open_gop=0 / weightp=2 / keyint=240 / keyint_min=24 / scenecut=40 / intra_refresh=0 / rc_lookahead=40 / rc=2pass / mbtree=1 / bitrate=2500 / ratetol=1.0 / qcomp=0.60 / qpmin=0 / qpmax=69 / qpstep=4 / cplxblur=20.0 / qblur=0.5 / ip_ratio=1.40 / aq=1:1.00
Default : Yes
Forced : No
Color range : Limited
Color primaries : BT.709
Transfer characteristics : BT.709
Matrix coefficients : BT.709
ENCODING_INFO : x264 - core 144 - H.264/MPEG-4 AVC codec - Copyright 2003-2015 - http://www.videolan.org/x264.html - options: cabac=1 ref=5 deblock=1:0:0 analyse=0x3:0x3 me=dia subme=1 psy=1 psy_rd=1.00:0.00 mixed_ref=0 me_range=16 chroma_me=1 trellis=0 8x8dct=1 cqm=1 deadzone=21,11 fast_pskip=1 chroma_qp_offset=0 threads=24 lookahead_threads=4 sliced_threads=0 slices=1 nr=0 decimate=1 interlaced=0 minigop=0 stitchable=1 constrained_intra=0 bframes=3 b_pyramid=0 b_adapt=0 b_bias=0 direct=1 weightb=1 open_gop=1 weightp=0 keyint=250 keyint_min=24 scenecut=40 intra_refresh=0 rc_lookahead=0 rc=cbr mbtree=0 bitrate=10900 ratetol=1.0 qcomp=0.60 qpmin=1 qpmax=69 qpstep=4 vbv_maxrate=10900 vbv_bufsize=10900 nal_hrd=cbr filler=1 ip_ratio=1.40 pb_ratio=1.30 aq=1:1.00
DURATION : 01:39:49.672000000

Audio #1
ID : 2
Format : AC-3
Format/Info : Audio Coding 3
Mode extension : CM (complete main)
Format settings, Endianness : Big
Codec ID : A_AC3
Duration : 1h 39mn
Bit rate mode : Constant
Bit rate : 448 Kbps
Channel(s) : 6 channels
Channel positions : Front: L C R, Side: L R, LFE
Sampling rate : 48.0 KHz
Bit depth : 32 bits
Compression mode : Lossy
Stream size : 320 MiB (13%)
Language : Russian
Default : Yes
Forced : No
DURATION : 01:39:49.664000000

Audio #2
ID : 3
Format : AC-3
Format/Info : Audio Coding 3
Mode extension : CM (complete main)
Format settings, Endianness : Big
Codec ID : A_AC3
Duration : 1h 39mn
Bit rate mode : Constant
Bit rate : 448 Kbps
Channel(s) : 6 channels
Channel positions : Front: L C R, Side: L R, LFE
Sampling rate : 48.0 KHz
Bit depth : 32 bits
Compression mode : Lossy
Stream size : 320 MiB (13%)
Language : Norwegian
Default : No
Forced : No
DURATION : 01:39:49.664000000


Релиз от: pic
pic


Информация
Информация Скриншоты Пиры Скачавшие Список файлов
Залил Оценка Просмотров Скачан Файлов
АРХАНГЕЛ 0 334501

Теги
боевик, драма, приключения

Похожие раздачи

Поиск не дал результатов.Больше похожих раздач →

Список комментариев
Комментарии отсутствуют

Добавить комментарий
Внимание
Гости не могут оставлять комментарии, авторизуйтесь.

Панель навигации

ПОПУЛЯРНЫЕ РАЗДАЧИ
скачать торрент Ледокол (2016) WEB-DLRip | iTunesскачать торрент Доктор Стрэндж (2016) TS
скачать торрент Ледокол (2016) WEB-DL 1080p | iTunesскачать торрент Дуэлянт (2016) CAMRip
скачать торрент Отряд самоубийц (2016) BDRip 1080p | Расширeнная версия | iTunesскачать торрент Джейсон Борн (2016) HDTV 720p | Чистый звук
скачать торрент Первый мститель: Противостояние (2016) BDRip | IMAX Edition | iTunesскачать торрент Тарзан. Легенда (2016) HDRip | iTunes
скачать торрент Dark Souls 3: Deluxe Edition (2016) PC | RePack от xatabскачать торрент Люди Икс: Апокалипсис / X-Men: Apocalypse (2016) BDRip 720p | Лицензия

Будь с нами!


Наши друзья 



Информация, расположенная на данном сервере, предназначена исключительно для частного использования и не может быть загружена/перенесена на другой компьютер. Ни владелец сайта, ни хостинг-провайдер, ни любые другие физические или юридические лица не могут нести никакой отвественностиза любое использование материалов данного сайта.

© 2012-2016 TRACK.KG.