Загрузить Adobe Flash Player
Как тут качать? :: Как встать на раздачу?

Скачать / Download torrent  
Хэш: 74f9bcf487cf78ee160c03c2e92da4560f00528e
Добавлен: 16 июня 2016 в 19:21:29
Категория: Фильмы » Зарубежное кино » Фантастика
Размер: 2.65 GB
Проверил: АРХАНГЕЛ 16 июня 2016 в 19:21:29

Раздают: 522 Качают: 204

Преступник / Criminal (2016) TC-AVC | D | Чистый звук

pic

Информация о фильме
Название: Преступник
Оригинальное название: Criminal
Год выхода: 2016
Жанр: фантастика, боевик, триллер, драма, криминал, детектив

Режиссер: Ариэль Вромен
В ролях: Кевин Костнер, Гари Олдман, Томми Ли Джонс, Райан Рейнольдс, Элис Ив, Галь Гадот, Хорди Молья, Майкл Питт, Амори Ноласко, Антье Трауэ

Слоган: «Последняя надежда ЦРУ находится в мозге преступника»

О фильме: В последней отчаянной попытке остановить катастрофу мирового масштаба генетики осуществляют невероятную операцию по вживлению воспоминаний и умений погибшего оперативника ЦРУ в тело опасного заключенного с надеждой, что тот доведет до конца прерванную миссию агента.

Страна: Великобритания, США / BenderSpink, Campbell Grobman Films, Lionsgate, Millennium Films
Продолжительность: 01:52:38
Перевод: Дублированный [Чистый звук]

pic pic pic pic pic
pic
Файл
Качество: TC-AVC
Формат: MKV
Видео: AVC, 2600 Kb/s, 1024x440
Звук: Russian / English: AC3, 384 Kb/s (2 ch)


General
Unique ID : 17366883831673231877823206228614154210 (0xD10BD7B3484BC7F1179AA747E6387E2)
Complete name : H:\ДИСК\01.ФИЛЬМЫ\Преступник (2016)\Criminal.2016.TC-AVC.mkv
Format : Matroska
Format version : Version 4 / Version 2
File size : 2.65 GiB
Duration : 1h 52mn
Overall bit rate : 3 375 Kbps
Movie name : rustorrens.info
Writing application : XviD4PSP 7.0.274 DAILY
Writing library : Lavf57.25.100
ENCODING_INFO : MATROSKA,WEBM > MKV / H264 > X264 VBR-2P 2600kbps Произвольный / AC3 > AC3 CBR 384kbps / AC3 > AC3 CBR 384kbps
MIMETYPE : image/jpeg
FILENAME : cover.jpg
DURATION : 00:00:00.000000000
Attachements : cover.jpg

Video
ID : 1
Format : AVC
Format/Info : Advanced Video Codec
Format profile : High@L4.1
Format settings, CABAC : Yes
Format settings, ReFrames : 11 frames
Codec ID : V_MPEG4/ISO/AVC
Bit rate : 2 600 Kbps
Width : 1 024 pixels
Height : 440 pixels
Display aspect ratio : 2.35:1
Frame rate mode : Variable
Original frame rate : 29.970 fps
Color space : YUV
Chroma subsampling : 4:2:0
Bit depth : 8 bits
Scan type : Progressive
Bits/(Pixel*Frame) : 0.193
Writing library : x264 core 148 r2694M 3b70645
Encoding settings : cabac=1 / ref=11 / deblock=1:-3:-3 / analyse=0x3:0x133 / me=umh / subme=11 / psy=1 / psy_rd=1.00:0.20 / mixed_ref=1 / me_range=16 / chroma_me=1 / trellis=2 / 8x8dct=1 / cqm=0 / deadzone=21,11 / fast_pskip=1 / chroma_qp_offset=-3 / threads=11 / lookahead_threads=1 / sliced_threads=0 / nr=0 / decimate=1 / interlaced=0 / bluray_compat=0 / constrained_intra=0 / bframes=8 / b_pyramid=2 / b_adapt=2 / b_bias=0 / direct=3 / weightb=1 / open_gop=0 / weightp=2 / keyint=250 / keyint_min=25 / scenecut=40 / intra_refresh=0 / rc_lookahead=40 / rc=2pass / mbtree=1 / bitrate=2600 / ratetol=1.0 / qcomp=0.60 / qpmin=0 / qpmax=69 / qpstep=4 / cplxblur=20.0 / qblur=0.5 / ip_ratio=1.40 / aq=1:1.00
Default : Yes
Forced : No
DURATION : 01:52:28.079000000

Audio #1
ID : 2
Format : AC-3
Format/Info : Audio Coding 3
Mode extension : CM (complete main)
Format settings, Endianness : Big
Codec ID : A_AC3
Duration : 1h 52mn
Bit rate mode : Constant
Bit rate : 384 Kbps
Channel(s) : 2 channels
Channel positions : Front: L R
Sampling rate : 48.0 KHz
Bit depth : 32 bits
Compression mode : Lossy
Stream size : 309 MiB (11%)
Language : Russian
Default : Yes
Forced : Yes
DURATION : 01:52:27.840000000

Audio #2
ID : 3
Format : AC-3
Format/Info : Audio Coding 3
Mode extension : CM (complete main)
Format settings, Endianness : Big
Codec ID : A_AC3
Duration : 1h 52mn
Bit rate mode : Constant
Bit rate : 384 Kbps
Channel(s) : 2 channels
Channel positions : Front: L R
Sampling rate : 48.0 KHz
Bit depth : 32 bits
Compression mode : Lossy
Stream size : 309 MiB (11%)
Language : English
Default : Yes
Forced : No
DURATION : 01:52:27.808000000


Релиз от: pic
pic


Информация
Информация Скриншоты Пиры Скачавшие Список файлов
Залил Оценка Просмотров Скачан Файлов
АРХАНГЕЛ +1 9855471

Теги
фантастика, боевик, триллер, драма, криминал, детектив

Похожие раздачи

Преступник / Criminal (2016) BDRip 1080p | Лицензия 8.24 GB

Преступник (2016) BDRip 720p | Лицензия 5.76 GB

Преступник / Criminal (2016) HDRip | Лицeнзия 1.37 GB

Больше похожих раздач →

Список комментариев
Комментарии отсутствуют

Добавить комментарий
Внимание
Гости не могут оставлять комментарии, авторизуйтесь.

Панель навигации

ПОПУЛЯРНЫЕ РАЗДАЧИ
скачать торрент Пассажиры (2016) TSскачать торрент Доктор Стрэндж (2016) TS
скачать торрент Отряд самоубийц (2016) BDRip 1080p | Расширeнная версия | iTunesскачать торрент Плохой Санта 2 (2016) WEB-DLRip | iTunes
скачать торрент Первый мститель: Противостояние (2016) BDRip | IMAX Edition | iTunesскачать торрент Джейсон Борн (2016) HDTV 1080p | Чистый звук
скачать торрент Любовь не по размеру (2016) BDRip | Лицензияскачать торрент Глубоководный горизонт (2016) HDRip | iTunes
скачать торрент Волки и овцы: бе-е-е-зумное превращение (2016) WEB-DLRip | Лицензияскачать торрент Голограмма для короля (2016) HDRip | Лицензия

Будь с нами!


Наши друзья 



Информация, расположенная на данном сервере, предназначена исключительно для частного использования и не может быть загружена/перенесена на другой компьютер. Ни владелец сайта, ни хостинг-провайдер, ни любые другие физические или юридические лица не могут нести никакой отвественностиза любое использование материалов данного сайта.

© 2012-2017 TRACK.KG.