Загрузить Adobe Flash Player
Как тут качать? :: Как встать на раздачу?

Скачать / Download torrent  
Хэш: 78f1cdd296153abc28724199cd04012eb8c55266
Добавлен: 16 июня 2016 в 09:04:09
Категория: Фильмы » Зарубежное кино » Ужасы
Размер: 2.37 GB
Проверил: АРХАНГЕЛ 16 июня 2016 в 09:04:09

Раздают: 1 Качают: 2

Черные праздники / Holidays (2016) WEB-DLRip-AVC | Чистый звук

pic

Информация о фильме
Название: Черные праздники
Оригинальное название: Holidays
Год выхода: 2016
Жанр: ужасы, комедия

Режиссер: Энтони Скотт Бёрнс, Кевин Колш, Николас МакКарти, Адам Иджипт Мортимер, Гари Шор, Кевин Смит, Сара Адина, Скотт Чарльз Стюарт, Деннис Уидмайер
В ролях: Кевин Смит, Лоренца Иззо, Сет Грин, Клэр Грант, Майкл Гросс, Эндрю Бауэн, Рут Брэдли, Майкл Сунь Ли, Ава Акрес, Джоселин Донахью и др.

Слоган: «У каждого своя тёмная сторона»

О фильме: Мы привыкли ждать от праздников только всего самого доброго и хорошего, но у каждого из них есть и своя темная сторона — страшные и леденящие душу истории, которые не могли произойти в обычный день. Все они случились в одном богом забытом городе, во время таких праздников, как Хэллоуин, Пасха, День Святого Валентина, Рождество…

Антология всеми любимых праздников, пропущенных через призму человеческих страхов и предубеждений.

Страна: США / ArtCastle Productions, Distant Corners Entertainment Group Inc., XYZ Films
Продолжительность: 01:44:32
Перевод: Дубляж [Чистый звук]

pic pic pic pic
pic
Файл
Качество: WEB-DLRip-AVC
Формат: MKV
Видео: AVC, 2600 Kb/s, 1024x576
Звук: Russian: AC3, 192 Kb/s (2 ch) / English: AC3, 384 Kb/s (6 ch)
Субтитры: English
Дополнительно: Сохранены оригинальные чаптеры

General
Unique ID : 308659680684982136147793810378330341150 (0xE835B131C42172B839DED3182CD1FF1E)
Complete name : H:\ДИСК\01.ФИЛЬМЫ\Черные праздники Holidays (2016)\Holidays.2016.D.WEB-DLRip-AVC.mkv
Format : Matroska
Format version : Version 4 / Version 2
File size : 2.37 GiB
Duration : 1h 44mn
Overall bit rate : 3 242 Kbps
Writing application : XviD4PSP 7.0.274 DAILY
Writing library : Lavf57.25.100
ENCODING_INFO : MATROSKA,WEBM > MKV / H264 > X264 VBR-2P 2600kbps Произвольный / AC3 > AC3 CBR 192kbps / AC3 > AC3 CBR 480kbps

Video
ID : 1
Format : AVC
Format/Info : Advanced Video Codec
Format profile : High@L4.1
Format settings, CABAC : Yes
Format settings, ReFrames : 11 frames
Codec ID : V_MPEG4/ISO/AVC
Bit rate : 2 600 Kbps
Width : 1 024 pixels
Height : 576 pixels
Display aspect ratio : 16:9
Frame rate mode : Variable
Original frame rate : 23.976 fps
Color space : YUV
Chroma subsampling : 4:2:0
Bit depth : 8 bits
Scan type : Progressive
Bits/(Pixel*Frame) : 0.184
Writing library : x264 core 148 r2694M 3b70645
Encoding settings : cabac=1 / ref=11 / deblock=1:-3:-3 / analyse=0x3:0x133 / me=umh / subme=11 / psy=1 / psy_rd=1.00:0.20 / mixed_ref=1 / me_range=16 / chroma_me=1 / trellis=2 / 8x8dct=1 / cqm=0 / deadzone=21,11 / fast_pskip=1 / chroma_qp_offset=-3 / threads=11 / lookahead_threads=1 / sliced_threads=0 / nr=0 / decimate=1 / interlaced=0 / bluray_compat=0 / constrained_intra=0 / bframes=8 / b_pyramid=2 / b_adapt=2 / b_bias=0 / direct=3 / weightb=1 / open_gop=0 / weightp=2 / keyint=230 / keyint_min=23 / scenecut=40 / intra_refresh=0 / rc_lookahead=40 / rc=2pass / mbtree=1 / bitrate=2600 / ratetol=1.0 / qcomp=0.60 / qpmin=0 / qpmax=69 / qpstep=4 / cplxblur=20.0 / qblur=0.5 / ip_ratio=1.40 / aq=1:1.00
Language : English
Default : Yes
Forced : No
Color range : Limited
Color primaries : BT.709
Transfer characteristics : BT.709
Matrix coefficients : BT.709
DURATION : 01:44:31.896000000

Audio #1
ID : 2
Format : AC-3
Format/Info : Audio Coding 3
Mode extension : CM (complete main)
Format settings, Endianness : Big
Codec ID : A_AC3
Duration : 1h 44mn
Bit rate mode : Constant
Bit rate : 192 Kbps
Channel(s) : 2 channels
Channel positions : Front: L R
Sampling rate : 48.0 KHz
Bit depth : 32 bits
Compression mode : Lossy
Stream size : 144 MiB (6%)
Language : Russian
Default : Yes
Forced : No
DURATION : 01:44:31.872000000

Audio #2
ID : 3
Format : AC-3
Format/Info : Audio Coding 3
Mode extension : CM (complete main)
Format settings, Endianness : Big
Codec ID : A_AC3
Duration : 1h 44mn
Bit rate mode : Constant
Bit rate : 448 Kbps
Channel(s) : 6 channels
Channel positions : Front: L C R, Side: L R, LFE
Sampling rate : 48.0 KHz
Bit depth : 32 bits
Compression mode : Lossy
Stream size : 335 MiB (14%)
Language : English
Default : No
Forced : No
DURATION : 01:44:31.872000000

Text
ID : 4
Format : UTF-8
Codec ID : S_TEXT/UTF8
Codec ID/Info : UTF-8 Plain Text
Language : English
Default : Yes
Forced : No
DURATION : 01:37:24.309000000

Menu
00:00:00.000 : :Opening Sequence
00:06:51.000 : :Valentine's Day
00:14:34.000 : :St. Patrick's Day
00:20:53.000 : :A Normal Baby
00:28:46.000 : :Easter
00:32:39.000 : :Your Turn
00:40:03.000 : :Mother's Day
00:45:38.000 : :Kidnapped
00:52:48.000 : :Father's Day
00:58:37.000 : :Where To Find Us
01:06:15.000 : :Halloween
01:12:25.000 : :Do It Or Die
01:18:10.000 : :Christmas
01:22:34.000 : :Adverse Reaction
01:27:40.000 : :New Year's
01:37:26.000 : :End Credits


Релиз от: pic
pic


Информация
Информация Скриншоты Пиры Скачавшие Список файлов
Залил Оценка Просмотров Скачан Файлов
АРХАНГЕЛ 0 206101

Теги
ужасы, комедия

Похожие раздачи

Черные праздники / Holidays (2016) HDRip | Чистый звук 1.46 GB

Больше похожих раздач →

Список комментариев
Комментарии отсутствуют

Добавить комментарий
Внимание
Гости не могут оставлять комментарии, авторизуйтесь.

Панель навигации

ПОПУЛЯРНЫЕ РАЗДАЧИ
скачать торрент Ледокол (2016) WEB-DLRip | iTunesскачать торрент Доктор Стрэндж (2016) TS
скачать торрент Ледокол (2016) WEB-DL 1080p | iTunesскачать торрент Дуэлянт (2016) CAMRip
скачать торрент Отряд самоубийц (2016) BDRip 1080p | Расширeнная версия | iTunesскачать торрент Джейсон Борн (2016) HDTV 720p | Чистый звук
скачать торрент Первый мститель: Противостояние (2016) BDRip | IMAX Edition | iTunesскачать торрент Тарзан. Легенда (2016) HDRip | iTunes
скачать торрент Dark Souls 3: Deluxe Edition (2016) PC | RePack от xatabскачать торрент Люди Икс: Апокалипсис / X-Men: Apocalypse (2016) BDRip 720p | Лицензия

Будь с нами!


Наши друзья 



Информация, расположенная на данном сервере, предназначена исключительно для частного использования и не может быть загружена/перенесена на другой компьютер. Ни владелец сайта, ни хостинг-провайдер, ни любые другие физические или юридические лица не могут нести никакой отвественностиза любое использование материалов данного сайта.

© 2012-2016 TRACK.KG.