Загрузить Adobe Flash Player
Как тут качать? :: Как встать на раздачу?

Скачать / Download torrent  
Хэш: f9c6bdff28f66542c71f8c9310e7e6102a49e349
Добавлен: 14 июня 2016 в 22:19:31
Категория: Мультфильмы
Размер: 2.74 GB
Проверил: АРХАНГЕЛ 14 июня 2016 в 21:28:49

Раздают: 8 Качают: 6

По ту сторону изгороди / Over the Garden Wall (Сезон 1, серии 1-10 из 10) (2014) HDRip-AVC | D

pic

Информация о фильме
Название: По ту сторону изгороди
Оригинальное название: Over the Garden Wall
Год выхода: 2014
Жанр: мультфильм, мюзикл, ужасы, фэнтези, драма, комедия, детектив, приключения, семейный

Режиссер: Нат Кэш
В ролях: Элайджа Вуд, Колин Дин, Мелани Лински, Кристофер Ллойд, Самюэл Рейми, Джек Джонс, Джон Клиз, Эмили Брандидж, Ширли Джонс, Фред Столлер, Крис Айзек

Слоган: «А Вы не хотите заглянуть?»

О фильме: В центре событий два брата Грег — младший из братьев и Вирт — старший из братьев. Им предстоит путешествие через таинственный и страшный лес, только пройдя его они смогут попасть домой.

01. Старая зерновая мельница / The Old Grist_Mill
02. Переполох в Поттсфилде / Hard Times at the Huskin' Bee
03. Школьные забавы / Schooltown Follies
04. Песни тёмного фонаря / Songs of the Dark Lantern
05. Без ума от любви / Mad Love
06. Колыбельная для лягушек / Lullaby in Frogland
07. Звон колокольчика / The Ringing of the Bell
08. Дети в лесу / Babes in the Woods
09. В Неизведанное / Into the Unknown
10. Неизведанное / The Unknown



Страна: США / Cartoon Network Studios
Продолжительность: 10 х ~ 00:11:30
Перевод: Дублированный [GALA Voices]

pic pic pic pic
Файл
Качество: HDRip-AVC
Формат: MKV
Видео: AVC, 2500 Kb/s, 1024x576
Звук: Russian / English: AC3, 448 Kb/s (6 ch)
Субтитры: Russian, English
Дополнительно: Сохранены оригинальные чаптеры

Format : Matroska
Format version : Version 4 / Version 2
File size : 273 MiB
Duration : 11mn 14s
Overall bit rate : 3 397 Kbps
Movie name : По ту сторону изгороди / Over the Garden Wall (2014) S01E01 Старая мельница / The Old Grist Mill
Writing application : XviD4PSP 7.0.273 DAILY
Writing library : Lavf57.25.100
ENCODING_INFO : MATROSKA,WEBM > MKV / H264 > X264 VBR-2P 2500kbps Произвольный / AC3 > AC3 CBR 448kbps / AC3 > AC3 CBR 448kbps

Video
ID : 1
Format : AVC
Format/Info : Advanced Video Codec
Format profile : High@L4.1
Format settings, CABAC : Yes
Format settings, ReFrames : 9 frames
Codec ID : V_MPEG4/ISO/AVC
Bit rate : 2 500 Kbps
Width : 1 024 pixels
Height : 576 pixels
Display aspect ratio : 16:9
Frame rate mode : Variable
Original frame rate : 23.976 fps
Color space : YUV
Chroma subsampling : 4:2:0
Bit depth : 8 bits
Scan type : Progressive
Bits/(Pixel*Frame) : 0.177
Title : MPEG-4 AVC @ ~4000 Kbps - NTb
Writing library : x264 core 148 r2694M 3b70645
Encoding settings : cabac=1 / ref=9 / deblock=1:-3:-3 / analyse=0x3:0x133 / me=umh / subme=11 / psy=1 / psy_rd=1.00:0.20 / mixed_ref=1 / me_range=16 / chroma_me=1 / trellis=2 / 8x8dct=1 / cqm=0 / deadzone=21,11 / fast_pskip=1 / chroma_qp_offset=-3 / threads=9 / lookahead_threads=1 / sliced_threads=0 / nr=0 / decimate=1 / interlaced=0 / bluray_compat=0 / constrained_intra=0 / bframes=8 / b_pyramid=2 / b_adapt=2 / b_bias=0 / direct=3 / weightb=1 / open_gop=0 / weightp=2 / keyint=230 / keyint_min=23 / scenecut=40 / intra_refresh=0 / rc_lookahead=40 / rc=2pass / mbtree=1 / bitrate=2500 / ratetol=1.0 / qcomp=0.60 / qpmin=0 / qpmax=69 / qpstep=4 / cplxblur=20.0 / qblur=0.5 / ip_ratio=1.40 / aq=1:1.00
Language : English
Default : Yes
Forced : No
ENCODING_INFO : x264 - core 148 r2665+53 6629127 t_mod_Custom [8-bit@all X86_64] - H.264/MPEG-4 AVC codec - Copyleft 2003-2015 - http://www.videolan.org/x264.html - options: cabac=1 ref=9 deblock=1:-3:-3 analyse=0x3:0x133 me=umh subme=10 psy=1 fade_compensate=0.00 psy_rd=0.80:0.00 mixed_ref=1 me_range=48 chroma_me=1 trellis=2 8x8dct=1 cqm=0 deadzone=21,11 fast_pskip=1 chroma_qp_offset=-2 threads=4 lookahead_threads=1 sliced_threads=0 nr=0 decimate=1 interlaced=0 bluray_compat=0 constrained_intra=0 fgo=0 bframes=10 b_pyramid=2 b_adapt=2 b_bias=0 direct=3 weightb=1 open_gop=0 weightp=2 keyint=250 keyint_min=23 scenecut=40 intra_refresh=0 rc_lookahead=150 rc=crf mbtree=0 crf=15.0000 qcomp=0.65 qpmin=0:0:0 qpmax=69:69:69 qpstep=4 vbv_maxrate=50000 vbv_bufsize=62500 crf_max=0.0 nal_hrd=none filler=0 ip_ratio=1.40 pb_ratio=1.30 aq=3:0.90 aq-sensitivity=10.00 aq-factor=1.00:1.00:1.00 aq2=0 aq3=0 zones=1478,1737,crf=13.5/5561,5710,crf=13.5/6348,6558,crf=13.5/9923,10338,crf=13.5
DURATION : 00:11:14.471000000

Audio #1
ID : 2
Format : AC-3
Format/Info : Audio Coding 3
Mode extension : CM (complete main)
Format settings, Endianness : Big
Codec ID : A_AC3
Duration : 11mn 14s
Bit rate mode : Constant
Bit rate : 448 Kbps
Channel(s) : 2 channels
Channel positions : Front: L R
Sampling rate : 48.0 KHz
Bit depth : 32 bits
Compression mode : Lossy
Stream size : 36.0 MiB (13%)
Title : AC3 2.0 @ 640 Kbps - Дубляж, GALA Voices
Language : Russian
Default : Yes
Forced : No
DURATION : 00:11:14.528000000

Audio #2
ID : 3
Format : AC-3
Format/Info : Audio Coding 3
Mode extension : CM (complete main)
Format settings, Endianness : Big
Codec ID : A_AC3
Duration : 11mn 14s
Bit rate mode : Constant
Bit rate : 448 Kbps
Channel(s) : 2 channels
Channel positions : Front: L R
Sampling rate : 48.0 KHz
Bit depth : 32 bits
Compression mode : Lossy
Stream size : 36.0 MiB (13%)
Title : AC3 2.0 @ 640 kbps
Language : English
Default : No
Forced : No
DURATION : 00:11:14.528000000

Text #1
ID : 4
Format : UTF-8
Codec ID : S_TEXT/UTF8
Codec ID/Info : UTF-8 Plain Text
Title : SRT - Full - Cyrus Veber
Language : Russian
Default : Yes
Forced : No
DURATION : 00:10:51.395000000

Text #2
ID : 5
Format : UTF-8
Codec ID : S_TEXT/UTF8
Codec ID/Info : UTF-8 Plain Text
Title : SRT - Full
Language : English
Default : No
Forced : No
DURATION : 00:10:53.450000000

Text #3
ID : 6
Format : UTF-8
Codec ID : S_TEXT/UTF8
Codec ID/Info : UTF-8 Plain Text
Title : SRT - Full SDH
Language : English
Default : No
Forced : No
DURATION : 00:10:55.952000000

Menu
00:00:00.000 : :Chapter 1
00:01:00.686 : :Chapter 2
00:10:56.114 : :Chapter 3


Релиз от: pic
pic


Информация
Информация Скриншоты Пиры Скачавшие Список файлов

Похожие раздачи

Поиск не дал результатов.Больше похожих раздач →

Список комментариев
Комментарии отсутствуют

Добавить комментарий
Внимание
Гости не могут оставлять комментарии, авторизуйтесь.

Панель навигации

ПОПУЛЯРНЫЕ РАЗДАЧИ
скачать торрент Ледокол (2016) WEB-DLRip | iTunesскачать торрент Доктор Стрэндж (2016) TS
скачать торрент Ледокол (2016) WEB-DL 1080p | iTunesскачать торрент Дуэлянт (2016) CAMRip
скачать торрент Отряд самоубийц (2016) BDRip 1080p | Расширeнная версия | iTunesскачать торрент Джейсон Борн (2016) HDTV 720p | Чистый звук
скачать торрент Первый мститель: Противостояние (2016) BDRip | IMAX Edition | iTunesскачать торрент Тарзан. Легенда (2016) HDRip | iTunes
скачать торрент Полтора шпиона (2016) BDRip 1080p | Лицензияскачать торрент Джейсон Борн (2016) HDTV 1080p | Чистый звук

Будь с нами!


Наши друзья 



Информация, расположенная на данном сервере, предназначена исключительно для частного использования и не может быть загружена/перенесена на другой компьютер. Ни владелец сайта, ни хостинг-провайдер, ни любые другие физические или юридические лица не могут нести никакой отвественностиза любое использование материалов данного сайта.

© 2012-2016 TRACK.KG.