Загрузить Adobe Flash Player
Как тут качать? :: Как встать на раздачу?

Скачать / Download torrent  
Хэш: 183532dea426c305be06592df44c42446642be8b
Добавлен: 11 июня 2016 в 19:22:13
Категория: Фильмы » Зарубежное кино » Фантастика
Размер: 2.15 GB
Проверил: АРХАНГЕЛ 11 июня 2016 в 19:22:13

Раздают: 455 Качают: 182

Мобильник / Cell (2016) WEB-DLRip-AVC | L

pic

Информация о фильме
Название: Мобильник
Оригинальное название: Cell
Год выхода: 2016
Жанр: ужасы, фантастика, триллер

Режиссер: Тод «Кип» Уильямс
В ролях: Оуэн Тиг, Сэмюэл Л. Джексон, Джон Кьюсак, Изабель Фурман, Стейси Кич, Джошуа Микель, Ллойд Кауфман, Алекс тер Авест, Майкл Бисли, Гриффин Фриман

Слоган: «Когда всё подключено, никто не безопасности»

О фильме: История художника Клайтона Ридделла, становящегося свидетелем разрушительного действия некоего опасного импульса, источающегося сотовыми телефонами (скорость его распространения невероятно высока) и превращающего попавших под его влияние людей в безумцев. В компании нескольких незараженных героев он отправляется на поиски своей супруги и сына, чтобы выяснить, удалось ли спастись его семье.

Страна: США / Benaroya Pictures, Cargo Entertainment, Genre Co., The
Продолжительность: 01:38:03
Перевод: Любительский (многоголосый) [КолдФильм]

pic pic pic pic pic pic
pic
Файл
Качество: WEB-DLRip-AVC
Формат: MKV
Видео: AVC, 2500 Kbps, 1024 x 424
Звук: Russian: AC3, 192 Kb/s (2 ch), English: AC3, 384 Kb/s (6 ch)
Субтитры: English
Дополнительно: Сохранены оригинальные чаптеры

Format : Matroska
Format version : Version 4 / Version 2
File size : 2.15 GiB
Duration : 1h 38mn
Overall bit rate : 3 143 Kbps
Writing application : XviD4PSP 7.0.273 DAILY
Writing library : Lavf57.25.100
ENCODING_INFO : MATROSKA,WEBM > MKV / H264 > X264 VBR-2P 2500kbps Произвольный / AC3 > AC3 CBR 192kbps / AC3 > AC3 CBR 480kbps

Video
ID : 1
Format : AVC
Format/Info : Advanced Video Codec
Format profile : High@L4.1
Format settings, CABAC : Yes
Format settings, ReFrames : 8 frames
Codec ID : V_MPEG4/ISO/AVC
Bit rate : 2 500 Kbps
Width : 1 024 pixels
Height : 424 pixels
Display aspect ratio : 2.40:1
Frame rate mode : Variable
Original frame rate : 23.976 fps
Color space : YUV
Chroma subsampling : 4:2:0
Bit depth : 8 bits
Scan type : Progressive
Bits/(Pixel*Frame) : 0.240
Writing library : x264 core 148 r2694M 3b70645
Encoding settings : cabac=1 / ref=8 / deblock=1:-3:-3 / analyse=0x3:0x133 / me=umh / subme=9 / psy=1 / psy_rd=1.00:0.20 / mixed_ref=1 / me_range=16 / chroma_me=1 / trellis=2 / 8x8dct=1 / cqm=0 / deadzone=21,11 / fast_pskip=1 / chroma_qp_offset=-3 / threads=9 / lookahead_threads=1 / sliced_threads=0 / nr=0 / decimate=1 / interlaced=0 / bluray_compat=0 / constrained_intra=0 / bframes=8 / b_pyramid=2 / b_adapt=2 / b_bias=0 / direct=3 / weightb=1 / open_gop=0 / weightp=2 / keyint=230 / keyint_min=23 / scenecut=40 / intra_refresh=0 / rc_lookahead=40 / rc=2pass / mbtree=1 / bitrate=2500 / ratetol=1.0 / qcomp=0.60 / qpmin=0 / qpmax=69 / qpstep=4 / cplxblur=20.0 / qblur=0.5 / ip_ratio=1.40 / aq=1:1.00
Language : English
Default : Yes
Forced : No
Color range : Limited
Color primaries : BT.709
Transfer characteristics : BT.709
Matrix coefficients : BT.709
DURATION : 01:38:02.966000000

Audio #1
ID : 2
Format : AC-3
Format/Info : Audio Coding 3
Mode extension : CM (complete main)
Format settings, Endianness : Big
Codec ID : A_AC3
Duration : 1h 38mn
Bit rate mode : Constant
Bit rate : 192 Kbps
Channel(s) : 2 channels
Channel positions : Front: L R
Sampling rate : 48.0 KHz
Bit depth : 32 bits
Compression mode : Lossy
Stream size : 135 MiB (6%)
Language : Russian
Default : Yes
Forced : No
DURATION : 01:38:02.912000000

Audio #2
ID : 3
Format : AC-3
Format/Info : Audio Coding 3
Mode extension : CM (complete main)
Format settings, Endianness : Big
Codec ID : A_AC3
Duration : 1h 38mn
Bit rate mode : Constant
Bit rate : 448 Kbps
Channel(s) : 6 channels
Channel positions : Front: L C R, Side: L R, LFE
Sampling rate : 48.0 KHz
Bit depth : 32 bits
Compression mode : Lossy
Stream size : 314 MiB (14%)
Language : English
Default : No
Forced : No
DURATION : 01:38:03.936000000

Text
ID : 4
Format : UTF-8
Codec ID : S_TEXT/UTF8
Codec ID/Info : UTF-8 Plain Text
Language : English
Default : Yes
Forced : No
DURATION : 01:32:09.648000000

Menu
00:00:00.000 : :1
00:12:24.000 : :2
00:22:43.000 : :3
00:34:08.000 : :4
00:43:14.000 : :5
00:52:47.000 : :6
01:03:32.000 : :7
01:13:19.000 : :8
01:23:58.000 : :9
01:33:24.000 : :10


Релиз от: pic
pic


Информация
Информация Скриншоты Пиры Скачавшие Список файлов
Залил Оценка Просмотров Скачан Файлов
АРХАНГЕЛ 0 6941111

Теги
ужасы, фантастика, триллер

Похожие раздачи

Мобильник (2016) BDRip 720p | Лицензия 5.32 GB

Мобильник (2016) BDRip | Лицензия 1.37 GB

Мобильник (2016) WEB-DL 1080p | Лицензия 3.37 GB

Больше похожих раздач →

Список комментариев
Комментарии отсутствуют

Добавить комментарий
Внимание
Гости не могут оставлять комментарии, авторизуйтесь.

Панель навигации

ПОПУЛЯРНЫЕ РАЗДАЧИ
скачать торрент Ледокол (2016) WEB-DLRip | iTunesскачать торрент Доктор Стрэндж (2016) TS
скачать торрент Ледокол (2016) WEB-DL 1080p | iTunesскачать торрент Дуэлянт (2016) CAMRip
скачать торрент Отряд самоубийц (2016) BDRip 1080p | Расширeнная версия | iTunesскачать торрент Джейсон Борн (2016) HDTV 720p | Чистый звук
скачать торрент Первый мститель: Противостояние (2016) BDRip | IMAX Edition | iTunesскачать торрент Тарзан. Легенда (2016) HDRip | iTunes
скачать торрент Dark Souls 3: Deluxe Edition (2016) PC | RePack от xatabскачать торрент Люди Икс: Апокалипсис / X-Men: Apocalypse (2016) BDRip 720p | Лицензия

Будь с нами!


Наши друзья 



Информация, расположенная на данном сервере, предназначена исключительно для частного использования и не может быть загружена/перенесена на другой компьютер. Ни владелец сайта, ни хостинг-провайдер, ни любые другие физические или юридические лица не могут нести никакой отвественностиза любое использование материалов данного сайта.

© 2012-2016 TRACK.KG.