Загрузить Adobe Flash Player
Как тут качать? :: Как встать на раздачу?

Скачать / Download torrent  
Хэш: a392a1db75b2dd6b90e020add5e1a0ad4e9da990
Добавлен: 11 июня 2016 в 04:01:52
Категория: Фильмы » Зарубежное кино » Фэнтези
Размер: 1.92 GB
Проверил: АРХАНГЕЛ 11 июня 2016 в 04:01:52

Раздают: 14 Качают: 16

Мифика: Некромант / Mythica: The Necromancer (2015) WEB-DLRip-AVC | P

pic

Информация о фильме
Название: Мифика: Некромант
Оригинальное название: Mythica: The Necromancer
Год выхода: 2015
Жанр: фэнтези, боевик, приключения

Режиссер: А. Тодд Смит
В ролях: Никола Посенер, Мелани Стоун, Адам Джонсон, Джейк Стормоен, Филип Броди, Кевин Сорбо, Дэвей Моррисон, Роберт Джейн, Кристофер Робин Миллер, Джофф Хансен

О фильме: Молодая волшебница Марек, рожденная с темной способностью к некромантии, учится использовать во благо ту силу, которая способна погубить ее саму. Вместе с командой друзей она пытается помешать злодейским планам Темного Властелина.

Страна: США / Arrowstorm Entertainment, Bellpond Films
Продолжительность: 01:35:19
Перевод: Профессиональный (многоголосый закадровый) [Официальный]

pic pic pic pic
pic
Файл
Качество: WEB-DLRip-AVC
Формат: MKV
Видео: AVC, 2500 Kb/s, 1024x576
Звук: Russian / English: AC3, 192 Kb/s (2 ch)

General
Unique ID : 298373521409855651979945605211726702897 (0xE078A663180050D9E6DB5D05FA066931)
Complete name : H:\ДИСК\01.ФИЛЬМЫ\Мифика Некромант Mythica The Necromancer 2015\Mefika.Nekromant.2O15.P.WEBDLRip-AVC.mkv
Format : Matroska
Format version : Version 4 / Version 2
File size : 1.92 GiB
Duration : 1h 35mn
Overall bit rate : 2 886 Kbps
Writing application : XviD4PSP 7.0.273 DAILY
Writing library : Lavf57.25.100
ENCODING_INFO : MATROSKA,WEBM > MKV / H264 > X264 VBR-2P 2500kbps Произвольный / AC3 > AC3 CBR 192kbps / AC3 > AC3 CBR 192kbps

Video
ID : 1
Format : AVC
Format/Info : Advanced Video Codec
Format profile : High@L4.1
Format settings, CABAC : Yes
Format settings, ReFrames : 8 frames
Codec ID : V_MPEG4/ISO/AVC
Bit rate : 2 500 Kbps
Width : 1 024 pixels
Height : 576 pixels
Display aspect ratio : 16:9
Frame rate mode : Variable
Original frame rate : 23.976 fps
Color space : YUV
Chroma subsampling : 4:2:0
Bit depth : 8 bits
Scan type : Progressive
Bits/(Pixel*Frame) : 0.177
Writing library : x264 core 148 r2694M 3b70645
Encoding settings : cabac=1 / ref=8 / deblock=1:-3:-3 / analyse=0x3:0x133 / me=umh / subme=9 / psy=1 / psy_rd=1.00:0.20 / mixed_ref=1 / me_range=16 / chroma_me=1 / trellis=2 / 8x8dct=1 / cqm=0 / deadzone=21,11 / fast_pskip=1 / chroma_qp_offset=-3 / threads=9 / lookahead_threads=1 / sliced_threads=0 / nr=0 / decimate=1 / interlaced=0 / bluray_compat=0 / constrained_intra=0 / bframes=8 / b_pyramid=2 / b_adapt=2 / b_bias=0 / direct=3 / weightb=1 / open_gop=0 / weightp=2 / keyint=230 / keyint_min=23 / scenecut=40 / intra_refresh=0 / rc_lookahead=40 / rc=2pass / mbtree=1 / bitrate=2500 / ratetol=1.0 / qcomp=0.60 / qpmin=0 / qpmax=69 / qpstep=4 / cplxblur=20.0 / qblur=0.5 / ip_ratio=1.40 / aq=1:1.00
Default : Yes
Forced : No
Color range : Limited
Color primaries : BT.709
Transfer characteristics : BT.709
Matrix coefficients : BT.709
DURATION : 01:35:19.010000000

Audio #1
ID : 2
Format : AC-3
Format/Info : Audio Coding 3
Mode extension : CM (complete main)
Format settings, Endianness : Big
Codec ID : A_AC3
Duration : 1h 35mn
Bit rate mode : Constant
Bit rate : 192 Kbps
Channel(s) : 2 channels
Channel positions : Front: L R
Sampling rate : 48.0 KHz
Bit depth : 32 bits
Compression mode : Lossy
Stream size : 131 MiB (7%)
Language : Russian
Default : Yes
Forced : Yes
DURATION : 01:35:19.104000000

Audio #2
ID : 3
Format : AC-3
Format/Info : Audio Coding 3
Mode extension : CM (complete main)
Format settings, Endianness : Big
Codec ID : A_AC3
Duration : 1h 35mn
Bit rate mode : Constant
Bit rate : 192 Kbps
Channel(s) : 2 channels
Channel positions : Front: L R
Sampling rate : 48.0 KHz
Bit depth : 32 bits
Compression mode : Lossy
Stream size : 131 MiB (7%)
Language : English
Default : Yes
Forced : No
DURATION : 01:35:19.104000000


Релиз от: pic
pic


Информация
Информация Скриншоты Пиры Скачавшие Список файлов
Залил Оценка Просмотров Скачан Файлов
АРХАНГЕЛ 0 293301

Теги
фэнтези, боевик, приключения

Похожие раздачи

Мифика: Задание для героев / Mythica: A Quest for Heroes (2015) HDRip-AVC | L1 1.71 GB

Больше похожих раздач →

Список комментариев
Комментарии отсутствуют

Добавить комментарий
Внимание
Гости не могут оставлять комментарии, авторизуйтесь.

Панель навигации

ПОПУЛЯРНЫЕ РАЗДАЧИ
скачать торрент Пассажиры (2016) TSскачать торрент Доктор Стрэндж (2016) TS
скачать торрент Отряд самоубийц (2016) BDRip 1080p | Расширeнная версия | iTunesскачать торрент Плохой Санта 2 (2016) WEB-DLRip | iTunes
скачать торрент Первый мститель: Противостояние (2016) BDRip | IMAX Edition | iTunesскачать торрент Джейсон Борн (2016) HDTV 1080p | Чистый звук
скачать торрент Любовь не по размеру (2016) BDRip | Лицензияскачать торрент Глубоководный горизонт (2016) HDRip | iTunes
скачать торрент Волки и овцы: бе-е-е-зумное превращение (2016) WEB-DLRip | Лицензияскачать торрент Голограмма для короля (2016) HDRip | Лицензия

Будь с нами!


Наши друзья 



Информация, расположенная на данном сервере, предназначена исключительно для частного использования и не может быть загружена/перенесена на другой компьютер. Ни владелец сайта, ни хостинг-провайдер, ни любые другие физические или юридические лица не могут нести никакой отвественностиза любое использование материалов данного сайта.

© 2012-2017 TRACK.KG.