Загрузить Adobe Flash Player
Как тут качать? :: Как встать на раздачу?

Скачать / Download torrent  
Хэш: de868b5970754f2c5c3a6df2e44a0e46a1905f5a
Добавлен: 2 июня 2016 в 20:24:05
Категория: Мультфильмы
Размер: 1.82 GB
Проверил: АРХАНГЕЛ 2 июня 2016 в 20:24:05

Раздают: 178 Качают: 21

Робинзон Крузо: Очень обитаемый остров / Robinson Crusoe (2016) WEB-DLRip-AVC | iTunes

pic

Информация о фильме
Название: Робинзон Крузо: Очень обитаемый остров
Оригинальное название: Robinson Crusoe
Год выхода: 2016
Жанр: мультфильм, комедия, приключения

Режиссер: Винсент Кестелут, Бен Стассен
В ролях: Рон Аллен, Джордж Бэббит, Лайла Берзиньш, Илька Бессин, Джои Камен, Джефф Дусетте, Джефф Дусетте, Сэнди Фокс, Дитер Халлерворден, Кайл Херберт

Слоган: «Однажды на берег очень даже обитаемого острова...»

О фильме: Все знают историю о Робинзоне Крузо, попавшем на необитаемый остров. Однако, как же можно назвать его необитаемым, если он населен разнообразными веселыми животными и птицами? Они очень удивились, впервые встретив это странное существо, и даже приняли его за морское чудовище. Попугаю по кличке Вторник и его друзьям — хамелеону, тапиру и другим обитателям острова предстоит поближе познакомиться с незнакомым зверем «человеком» и вместе с ним пережить массу опасных и веселых приключений.

Страна: Франция, Бельгия / nWave Pictures, Studio Canal, uFilm
Продолжительность: 01:30:23
Перевод: Дубляж [iTunes]

pic pic pic pic
Файл
Качество: WEB-DLRip-AVC
Формат: MKV
Видео: AVCБ 2500 Kb/s, 1024X432
Звук: AC3, 384 kb/s (6 ch)
Дополнительно: Сохранены оригинальные чаптеры

General
Unique ID : 246601722129937875262495329748732104816 (0xB985C39BF9C9883DA18CF5EB26145070)
Complete name : D:\ДИСК\04.МУЛЬТФИЛЬМЫ\Робинзон Крузо Очень обитаемый остров Robinson Crusoe (2016)\KruZZoo.2O16.WEB-DLRip-AVC.mkv
Format : Matroska
Format version : Version 4 / Version 2
File size : 1.82 GiB
Duration : 1h 30mn
Overall bit rate : 2 884 Kbps
Movie name : Release by basma4i
Encoded date : UTC 2016-06-02 13:49:07
Writing application : mkvmerge v8.2.0 ('World of Adventure') 64bit
Writing library : Lavf57.25.100
ENCODING_INFO : MATROSKA,WEBM > MKV / H264 > X264 VBR-2P 2500kbps Произвольный
DURATION : 01:30:23.232000000
NUMBER_OF_FRAMES : 169476
NUMBER_OF_BYTES : 260315136
_STATISTICS_WRITING_APP : mkvmerge v8.2.0 ('World of Adventure') 64bit
_STATISTICS_WRITING_DATE_UTC : 2016-06-02 13:49:07
_STATISTICS_TAGS : BPS DURATION NUMBER_OF_FRAMES NUMBER_OF_BYTES

Video
ID : 1
Format : AVC
Format/Info : Advanced Video Codec
Format profile : High@L4.1
Format settings, CABAC : Yes
Format settings, ReFrames : 8 frames
Codec ID : V_MPEG4/ISO/AVC
Duration : 1h 30mn
Bit rate : 2 500 Kbps
Width : 1 024 pixels
Height : 432 pixels
Display aspect ratio : 2.40:1
Original display aspect ratio : 2.40:1
Frame rate mode : Constant
Frame rate : 24.000 fps
Color space : YUV
Chroma subsampling : 4:2:0
Bit depth : 8 bits
Scan type : Progressive
Bits/(Pixel*Frame) : 0.235
Stream size : 1.54 GiB (85%)
Writing library : x264 core 148 r2694M 3b70645
Encoding settings : cabac=1 / ref=8 / deblock=1:-3:-3 / analyse=0x3:0x133 / me=umh / subme=8 / psy=1 / psy_rd=1.00:0.20 / mixed_ref=1 / me_range=16 / chroma_me=1 / trellis=2 / 8x8dct=1 / cqm=0 / deadzone=21,11 / fast_pskip=1 / chroma_qp_offset=-3 / threads=9 / lookahead_threads=3 / sliced_threads=0 / nr=0 / decimate=1 / interlaced=0 / bluray_compat=0 / constrained_intra=0 / bframes=8 / b_pyramid=2 / b_adapt=2 / b_bias=0 / direct=3 / weightb=1 / open_gop=0 / weightp=2 / keyint=240 / keyint_min=24 / scenecut=40 / intra_refresh=0 / rc_lookahead=40 / rc=2pass / mbtree=1 / bitrate=2500 / ratetol=1.0 / qcomp=0.60 / qpmin=1 / qpmax=69 / qpstep=4 / cplxblur=20.0 / qblur=0.5 / ip_ratio=1.40 / aq=1:1.00
Language : English
Default : Yes
Forced : No
Color range : Limited
Color primaries : BT.709
Transfer characteristics : BT.709
Matrix coefficients : BT.709
DURATION : 01:30:23.250000000
NUMBER_OF_FRAMES : 130158
NUMBER_OF_BYTES : 1693436958
_STATISTICS_WRITING_APP : mkvmerge v8.2.0 ('World of Adventure') 64bit
_STATISTICS_WRITING_DATE_UTC : 2016-06-02 13:49:07
_STATISTICS_TAGS : BPS DURATION NUMBER_OF_FRAMES NUMBER_OF_BYTES

Audio
ID : 2
Format : AC-3
Format/Info : Audio Coding 3
Mode extension : CM (complete main)
Format settings, Endianness : Big
Codec ID : A_AC3
Duration : 1h 30mn
Bit rate mode : Constant
Bit rate : 384 Kbps
Channel(s) : 6 channels
Channel positions : Front: L C R, Side: L R, LFE
Sampling rate : 48.0 KHz
Compression mode : Lossy
Stream size : 248 MiB (13%)
Language : Russian
Default : Yes
Forced : No

Menu
00:00:00.000 : :Глава 1
00:05:18.041 : :Глава 2
00:11:16.832 : :Глава 3
00:17:07.832 : :Глава 4
00:23:10.040 : :Глава 5
00:28:55.081 : :Глава 6
00:35:05.246 : :Глава 7
00:40:42.997 : :Глава 8
00:46:33.247 : :Глава 9
00:52:50.663 : :Глава 10
00:59:08.288 : :Глава 11
01:04:25.829 : :Глава 12
01:09:32.537 : :Глава 13
01:15:14.537 : :Глава 14
01:21:30.078 : :Глава 15


Релиз от: pic
pic


Информация
Информация Скриншоты Пиры Скачавшие Список файлов
Залил Оценка Просмотров Скачан Файлов
АРХАНГЕЛ +2 7351751

Теги
мультфильм, комедия, приключения

Похожие раздачи

Робинзон Крузо: Очень обитаемый остров (2016) BDRip 1080p | Лицензия 3.95 GB

Робинзон Крузо: Очень обитаемый остров (2016) BDRip 720p | Лицензия 2.55 GB

Робинзон Крузо: Очень обитаемый остров (2016) HDRip | Лицензия 1.37 GB

Робинзон Крузо: Предводитель пиратов / Selkirk, el verdadero Robinson Crusoe (2011) HDTVRip-AVC | D 1.70 GB

Робинзон Крузо: Предводитель пиратов / Selkirk, el verdadero Robinson Crusoe (2011) [Мультфильм, приключения, семейный] DVDRip | 1.37 GB

Больше похожих раздач →

Список комментариев
Комментарии отсутствуют

Добавить комментарий
Внимание
Гости не могут оставлять комментарии, авторизуйтесь.

Панель навигации

ПОПУЛЯРНЫЕ РАЗДАЧИ
скачать торрент Ледокол (2016) WEB-DLRip | iTunesскачать торрент Доктор Стрэндж (2016) TS
скачать торрент Ледокол (2016) WEB-DL 1080p | iTunesскачать торрент Дуэлянт (2016) CAMRip
скачать торрент Отряд самоубийц (2016) BDRip 1080p | Расширeнная версия | iTunesскачать торрент Джейсон Борн (2016) HDTV 720p | Чистый звук
скачать торрент Первый мститель: Противостояние (2016) BDRip | IMAX Edition | iTunesскачать торрент Тарзан. Легенда (2016) HDRip | iTunes
скачать торрент Dark Souls 3: Deluxe Edition (2016) PC | RePack от xatabскачать торрент Люди Икс: Апокалипсис / X-Men: Apocalypse (2016) BDRip 720p | Лицензия

Будь с нами!


Наши друзья 



Информация, расположенная на данном сервере, предназначена исключительно для частного использования и не может быть загружена/перенесена на другой компьютер. Ни владелец сайта, ни хостинг-провайдер, ни любые другие физические или юридические лица не могут нести никакой отвественностиза любое использование материалов данного сайта.

© 2012-2016 TRACK.KG.