Загрузить Adobe Flash Player
Как тут качать? :: Как встать на раздачу?

Скачать / Download torrent  
Хэш: acbe591dd3717c6eeb5956cc2f1ddefda57c4582
Добавлен: 28 мая 2016 в 20:08:44
Категория: Мультфильмы
Размер: 2.17 GB
Проверил: АРХАНГЕЛ 28 мая 2016 в 20:08:44

Раздают: 11 Качают: 20

Аномализа / Anomalisa (2015) BDRip-AVC | iTunes

pic

Информация о фильме
Название: Аномализа
Оригинальное название: Anomalisa
Год выхода: 2015
Жанр: мультфильм, драма, мелодрама, комедия

Режиссер: Дьюк Джонсон, Чарли Кауфман
В ролях: Дэвид Тьюлис, Дженнифер Джейсон Ли, Том Нунен

О фильме: Майкл Стоун, автор книг по обслуживанию клиентов, страдает от неспособности контактировать с людьми. Однажды, в ходе очередной рабочей поездки, он встречает незнакомку, которая меняет его мировосприятие.

Страна: США / Paramount Animation, Starburns Industries
Продолжительность: 01:30:36
Перевод: Профессиональный (полное дублирование) [iTunes]

pic pic pic pic pic
Файл
Качество: BDRip-AVC
Формат: MKV
Видео: AVC, 2600 Kb/s, 1024x416
Звук: Russian: AC-3, 384 Kb/s (6 ch), English: AC-3, 448 Kb/s (6 ch)
Субтитры: Russian, English

General
Unique ID : 213384835922471772193278647765947944942 (0xA0886CAD384581368C3889BCC6AC8FEE)
Complete name : H:\ДИСК 1\04. МУЛЬТФИЛЬМЫ\Аномализа Anomalisa (2015)\Anomalisa (2015) BDRip-AVC.mkv
Format : Matroska
Format version : Version 4 / Version 2
File size : 2.17 GiB
Duration : 1h 30mn
Overall bit rate : 3 421 Kbps
Movie name : Release by basma4i
Encoded date : UTC 2016-05-25 08:59:13
Writing application : mkvmerge v8.2.0 ('World of Adventure') 64bit
Writing library : XviD4PSP 6.0 / 54.29.105
DURATION : 01:26:33.787000000
NUMBER_OF_FRAMES : 1519
NUMBER_OF_BYTES : 44762
_STATISTICS_WRITING_APP : mkvmerge v8.2.0 ('World of Adventure') 64bit
_STATISTICS_WRITING_DATE_UTC : 2016-05-28 13:39:37
_STATISTICS_TAGS : BPS DURATION NUMBER_OF_FRAMES NUMBER_OF_BYTES

Video
ID : 1
Format : AVC
Format/Info : Advanced Video Codec
Format profile : High@L4.1
Format settings, CABAC : Yes
Format settings, ReFrames : 7 frames
Codec ID : V_MPEG4/ISO/AVC
Duration : 1h 30mn
Bit rate : 2 600 Kbps
Width : 1 024 pixels
Height : 416 pixels
Display aspect ratio : 2.40:1
Original display aspect ratio : 2.40:1
Frame rate mode : Constant
Frame rate : 23.976 fps
Color space : YUV
Chroma subsampling : 4:2:0
Bit depth : 8 bits
Scan type : Progressive
Bits/(Pixel*Frame) : 0.255
Stream size : 1.60 GiB (74%)
Writing library : x264 core 128 r2216M 198a7ea
Encoding settings : cabac=1 / ref=8 / deblock=1:-3:-3 / analyse=0x3:0x133 / me=umh / subme=8 / psy=1 / psy_rd=1.00:0.20 / mixed_ref=1 / me_range=16 / chroma_me=1 / trellis=2 / 8x8dct=1 / cqm=0 / deadzone=21,11 / fast_pskip=1 / chroma_qp_offset=-3 / threads=8 / lookahead_threads=1 / sliced_threads=0 / nr=0 / decimate=1 / interlaced=0 / bluray_compat=0 / constrained_intra=0 / bframes=8 / b_pyramid=1 / b_adapt=2 / b_bias=0 / direct=3 / weightb=1 / open_gop=0 / weightp=2 / keyint=230 / keyint_min=23 / scenecut=40 / intra_refresh=0 / rc_lookahead=40 / rc=abr / mbtree=1 / bitrate=2600 / ratetol=1.0 / qcomp=0.60 / qpmin=0 / qpmax=69 / qpstep=4 / ip_ratio=1.40 / aq=1:1.00
Language : English
Default : Yes
Forced : No
DURATION : 01:30:36.273000000
NUMBER_OF_FRAMES : 130340
NUMBER_OF_BYTES : 1758273380
_STATISTICS_WRITING_APP : mkvmerge v8.2.0 ('World of Adventure') 64bit
_STATISTICS_WRITING_DATE_UTC : 2016-05-28 13:39:37
_STATISTICS_TAGS : BPS DURATION NUMBER_OF_FRAMES NUMBER_OF_BYTES

Audio #1
ID : 2
Format : AC-3
Format/Info : Audio Coding 3
Mode extension : CM (complete main)
Format settings, Endianness : Big
Codec ID : A_AC3
Duration : 1h 30mn
Bit rate mode : Constant
Bit rate : 384 Kbps
Channel(s) : 6 channels
Channel positions : Front: L C R, Side: L R, LFE
Sampling rate : 48.0 KHz
Compression mode : Lossy
Stream size : 249 MiB (11%)
Language : Russian
Default : Yes
Forced : No
DURATION : 01:30:37.152000000
NUMBER_OF_FRAMES : 169911
NUMBER_OF_BYTES : 260983296
_STATISTICS_WRITING_APP : mkvmerge v8.2.0 ('World of Adventure') 64bit
_STATISTICS_WRITING_DATE_UTC : 2016-05-28 13:39:37
_STATISTICS_TAGS : BPS DURATION NUMBER_OF_FRAMES NUMBER_OF_BYTES

Audio #2
ID : 3
Format : AC-3
Format/Info : Audio Coding 3
Mode extension : CM (complete main)
Format settings, Endianness : Big
Codec ID : A_AC3
Duration : 1h 30mn
Bit rate mode : Constant
Bit rate : 448 Kbps
Channel(s) : 6 channels
Channel positions : Front: L C R, Side: L R, LFE
Sampling rate : 48.0 KHz
Compression mode : Lossy
Delay relative to video : 27ms
Stream size : 290 MiB (13%)
Language : English
Default : No
Forced : No
DURATION : 01:30:36.448000000
NUMBER_OF_FRAMES : 169889
NUMBER_OF_BYTES : 304441088
_STATISTICS_WRITING_APP : mkvmerge v8.2.0 ('World of Adventure') 64bit
_STATISTICS_WRITING_DATE_UTC : 2016-05-28 13:39:37
_STATISTICS_TAGS : BPS DURATION NUMBER_OF_FRAMES NUMBER_OF_BYTES

Text #1
ID : 4
Format : UTF-8
Codec ID : S_TEXT/UTF8
Codec ID/Info : UTF-8 Plain Text
Language : Russian
Default : No
Forced : No

Text #2
ID : 5
Format : UTF-8
Codec ID : S_TEXT/UTF8
Codec ID/Info : UTF-8 Plain Text
Language : English
Default : No
Forced : No



Релиз от: pic
pic


Информация
Информация Скриншоты Пиры Скачавшие Список файлов
Залил Оценка Просмотров Скачан Файлов
АРХАНГЕЛ 0 19141

Теги
мультфильм, драма, мелодрама, комедия

Похожие раздачи

Аномализа / Anomalisa (2015) BDRip 1080p | Лицензия 4.61 GB

Аномализа / Anomalisa (2015) BDRip 720p | Лицензия 2.89 GB

Аномализа / Anomalisa (2015) HDRip | Лицензия 1.41 GB

Больше похожих раздач →

Список комментариев
Комментарии отсутствуют

Добавить комментарий
Внимание
Гости не могут оставлять комментарии, авторизуйтесь.

Панель навигации

ПОПУЛЯРНЫЕ РАЗДАЧИ
скачать торрент Ледокол (2016) WEB-DLRip | iTunesскачать торрент Доктор Стрэндж (2016) TS
скачать торрент Ледокол (2016) WEB-DL 1080p | iTunesскачать торрент Дуэлянт (2016) CAMRip
скачать торрент Отряд самоубийц (2016) BDRip 1080p | Расширeнная версия | iTunesскачать торрент Джейсон Борн (2016) HDTV 720p | Чистый звук
скачать торрент Первый мститель: Противостояние (2016) BDRip | IMAX Edition | iTunesскачать торрент Тарзан. Легенда (2016) HDRip | iTunes
скачать торрент Dark Souls 3: Deluxe Edition (2016) PC | RePack от xatabскачать торрент Люди Икс: Апокалипсис / X-Men: Apocalypse (2016) BDRip 720p | Лицензия

Будь с нами!


Наши друзья 



Информация, расположенная на данном сервере, предназначена исключительно для частного использования и не может быть загружена/перенесена на другой компьютер. Ни владелец сайта, ни хостинг-провайдер, ни любые другие физические или юридические лица не могут нести никакой отвественностиза любое использование материалов данного сайта.

© 2012-2016 TRACK.KG.