Загрузить Adobe Flash Player
Как тут качать? :: Как встать на раздачу?

Скачать / Download torrent  
Хэш: 899e0898b5c1943629d6d914f2d972e32c59e7ea
Добавлен: 2 февраля 2016 в 00:21:42
Категория: Фильмы » Зарубежное кино » Триллеры / Криминал
Размер: 1.81 GB
Проверил: АРХАНГЕЛ 2 февраля 2016 в 00:21:42

Раздают: 0 Качают: 0

Незваные гости / Shut In (2015) WEB-DLRip-AVC L2

pic

Информация о фильме
Название: Незваные гости
Оригинальное название: Shut In
Год выхода: 2015
Жанр: ужасы, триллер, драма

Режиссер: Адам Шиндлер
В ролях: Рори Калкин, Летисия Хименез, Джек Кеси, Тимоти Т. МакКинни, Джошуа Микель, Бэт Рисграф, Мартин Старр

Слоган: «Они должны были оставить её в покое»

О фильме: Анна страдает агорафобией (боязнью открытых пространств) столь сильной, что когда трое преступников врываются в ее дом, она не находит в себе сил бежать. Впрочем, вскоре бандитам предстоит осознать, что агорафобия - не единственный ее психоз...

Страна: США / Black Fish Films, Campbell Grobman Films, Jeff Rice Films, Vicarious Entertainment
Продолжительность: 01:30:16
Перевод: Любительский (двухголосый) Parovoz Production

pic pic pic pic
Файл
Качество: WEB-DLRip-AVC
Формат: MKV
Видео: AVC, 2300 Kbps, 1024x432
Звук: Русский: AC3, 2 ch, 192 Kbps, английский: AC3, 6 ch, 384 Kbps
Субтитры: Английские


General
Unique ID : 241097268783208336399473480110644072417 (0xB561A51B2D9C3A9FB51F02CE6A030FE1)
Complete name : D:\ДИСК\01.ФИЛЬМЫ\Незваные гости Shut In (2015)\Ne3vAnN1e.G0s3i.2015.L2.WEB-DLRip-AVC (1).mkv
Format : Matroska
Format version : Version 4 / Version 2
File size : 1.81 GiB
Duration : 1h 30mn
Overall bit rate : 2 876 Kbps
Movie name : Release by arhangel&vamo
Encoded date : UTC 2016-02-01 17:36:22
Writing application : mkvmerge v8.2.0 ('World of Adventure') 64bit
Writing library : libebml v1.3.1 + libmatroska v1.4.2
DURATION : 01:30:16.224000000
NUMBER_OF_FRAMES : 169257
NUMBER_OF_BYTES : 129989376
_STATISTICS_WRITING_APP : mkvmerge v8.2.0 ('World of Adventure') 64bit
_STATISTICS_WRITING_DATE_UTC : 2016-02-01 17:36:22
_STATISTICS_TAGS : BPS DURATION NUMBER_OF_FRAMES NUMBER_OF_BYTES

Video
ID : 1
Format : AVC
Format/Info : Advanced Video Codec
Format profile : High@L4.1
Format settings, CABAC : Yes
Format settings, ReFrames : 4 frames
Codec ID : V_MPEG4/ISO/AVC
Duration : 1h 30mn
Bit rate : 2 300 Kbps
Width : 1 024 pixels
Height : 432 pixels
Display aspect ratio : 2.40:1
Frame rate mode : Constant
Frame rate : 23.976 fps
Color space : YUV
Chroma subsampling : 4:2:0
Bit depth : 8 bits
Scan type : Progressive
Bits/(Pixel*Frame) : 0.217
Stream size : 1.41 GiB (78%)
Writing library : x264 core 146 r2538 121396c
Encoding settings : cabac=1 / ref=3 / deblock=1:-2:-1 / analyse=0x3:0x133 / me=umh / subme=6 / psy=1 / psy_rd=1.00:0.20 / mixed_ref=1 / me_range=24 / chroma_me=1 / trellis=2 / 8x8dct=1 / cqm=0 / deadzone=21,11 / fast_pskip=1 / chroma_qp_offset=-3 / threads=18 / lookahead_threads=3 / sliced_threads=0 / nr=0 / decimate=1 / interlaced=0 / bluray_compat=0 / constrained_intra=0 / bframes=3 / b_pyramid=2 / b_adapt=2 / b_bias=0 / direct=3 / weightb=1 / open_gop=0 / weightp=2 / keyint=250 / keyint_min=23 / scenecut=40 / intra_refresh=0 / rc_lookahead=60 / rc=2pass / mbtree=1 / bitrate=2300 / ratetol=1.0 / qcomp=0.60 / qpmin=0 / qpmax=69 / qpstep=4 / cplxblur=20.0 / qblur=0.5 / ip_ratio=1.40 / aq=1:1.00
Language : English
Default : Yes
Forced : No
DURATION : 01:30:16.295000000
NUMBER_OF_FRAMES : 129861
NUMBER_OF_BYTES : 1555772566
_STATISTICS_WRITING_APP : mkvmerge v8.2.0 ('World of Adventure') 64bit
_STATISTICS_WRITING_DATE_UTC : 2016-02-01 17:36:22
_STATISTICS_TAGS : BPS DURATION NUMBER_OF_FRAMES NUMBER_OF_BYTES

Audio #1
ID : 2
Format : AC-3
Format/Info : Audio Coding 3
Mode extension : CM (complete main)
Format settings, Endianness : Big
Codec ID : A_AC3
Duration : 1h 30mn
Bit rate mode : Constant
Bit rate : 192 Kbps
Channel(s) : 2 channels
Channel positions : Front: L R
Sampling rate : 48.0 KHz
Compression mode : Lossy
Stream size : 124 MiB (7%)
Title : Parovoz Production
Language : Russian
Default : Yes
Forced : No

Audio #2
ID : 3
Format : AC-3
Format/Info : Audio Coding 3
Mode extension : CM (complete main)
Format settings, Endianness : Big
Codec ID : A_AC3
Duration : 1h 30mn
Bit rate mode : Constant
Bit rate : 384 Kbps
Channel(s) : 6 channels
Channel positions : Front: L C R, Side: L R, LFE
Sampling rate : 48.0 KHz
Compression mode : Lossy
Stream size : 248 MiB (13%)
Language : English
Default : No
Forced : No

Text #1
ID : 4
Format : UTF-8
Codec ID : S_TEXT/UTF8
Codec ID/Info : UTF-8 Plain Text
Language : Russian
Default : Yes
Forced : Yes

Text #2
ID : 5
Format : UTF-8
Codec ID : S_TEXT/UTF8
Codec ID/Info : UTF-8 Plain Text
Title : English
Language : English
Default : No
Forced : No

Menu
00:00:00.000 : en:Chapter 1
00:08:08.000 : en:Chapter 2
00:14:36.000 : en:Chapter 3
00:22:32.000 : en:Chapter 4
00:30:14.000 : en:Chapter 5
00:37:48.000 : en:Chapter 6
00:46:24.000 : en:Chapter 7
00:55:36.000 : en:Chapter 8
01:04:52.000 : en:Chapter 9
01:13:45.000 : en:Chapter 10
01:22:20.000 : en:Chapter 11


pic


Информация
Информация Скриншоты Пиры Скачавшие Список файлов
Залил Оценка Просмотров Скачан Файлов
АРХАНГЕЛ 0 200141

Теги
ужасы, триллер, драма

Похожие раздачи

Незваные гости / Shut In (2015) BDRip 1080p | Лицензия 8.61 GB

Незваные гости / Shut In (2015) BDRip 720p | Лицензия 3.61 GB

Незваные гости / Shut In (2015) HDRip | Лицензия 1.44 GB

Больше похожих раздач →

Список комментариев
Комментарии отсутствуют

Добавить комментарий
Внимание
Гости не могут оставлять комментарии, авторизуйтесь.

Панель навигации

ПОПУЛЯРНЫЕ РАЗДАЧИ
скачать торрент Ледокол (2016) WEB-DLRip | iTunesскачать торрент Доктор Стрэндж (2016) TS
скачать торрент Ледокол (2016) WEB-DL 1080p | iTunesскачать торрент Дуэлянт (2016) CAMRip
скачать торрент Отряд самоубийц (2016) BDRip 1080p | Расширeнная версия | iTunesскачать торрент Джейсон Борн (2016) HDTV 720p | Чистый звук
скачать торрент Первый мститель: Противостояние (2016) BDRip | IMAX Edition | iTunesскачать торрент Тарзан. Легенда (2016) HDRip | iTunes
скачать торрент Dark Souls 3: Deluxe Edition (2016) PC | RePack от xatabскачать торрент Люди Икс: Апокалипсис / X-Men: Apocalypse (2016) BDRip 720p | Лицензия

Будь с нами!


Наши друзья 



Информация, расположенная на данном сервере, предназначена исключительно для частного использования и не может быть загружена/перенесена на другой компьютер. Ни владелец сайта, ни хостинг-провайдер, ни любые другие физические или юридические лица не могут нести никакой отвественностиза любое использование материалов данного сайта.

© 2012-2016 TRACK.KG.