Загрузить Adobe Flash Player
Как тут качать? :: Как встать на раздачу?

Скачать / Download torrent  
Хэш: e83180fb564b665f72365bbe3fe534779910d54f
Добавлен: 21 января 2016 в 22:49:51
Категория: Мультфильмы
Размер: 1.10 GB
Проверил: АРХАНГЕЛ 21 января 2016 в 22:49:51

Раздают: 0 Качают: 0

Бабай (Серии 01-13 из 13) (2015) WEB-DLRip 720р

pic

Информация о фильме
Название: Бабай
Год выхода: 2015
Жанр: Мультсериал, детский, приключения

Режиссер: Марина Медведь
В ролях: Рада Белова, Ирма Витовская, Остап Ступка, Олеся Чичельницкая, Катерина Бутская, Андрей Федюнчиков, Евгений Пашин, Ольга Радчук, Алена Блинникова, Мирослав Кувалдин.
Роли дублировали: Алексей Потапенко и Настя Каменских. Песня Светланки – Олеся Чечельницкая

Слоган: «Нереальные приключения.»

О фильме: Что будет, если в мире появится волшебное яйцо, исполняющее одно, но самое заветное желание? А что, если охоту за ним начнут герои детских страшилок — Ведьма с Чертом, Вий и главный злодей и кошмар всех детских снов Бабай со своей армией страхов… Страшно представить ради исполнения каких сокровенных желаний силы тьмы восстали против друг друга, и что будет с теми, кто случайно окажется у них на пути…

01. Дерзкое похищение
02. Сюрприз с неба
03. Рождение Светланки
04. Светланка творит чудеса
05. Светланка спешит на помощь
06. Светланка и Кот-Скрипун
07. Друзья не оставят в беде
08. Загадки-отгадки
09. Волшебный казан
10. Карты, шашки и три головы
11. Жадный паромщик
12. Секретный план
13. Добро побеждает зло


Страна: Украина / Укранимафильм
Продолжительность: 13 х 00:06:30
Перевод: не требуется (русский)

Файл
Качество: WEB-DLRip 720р
Формат: MKV
Видео: AVC/H.264, 1280x720, ~2000 kbps
Звук: AС3, 2 ch, 192 kbps


General
Unique ID : 69022488974482335291786178112155074957 (0x33ED3F7220D6E5A71DCE1CD34D3CC18D)
Complete name : C:\Бабай (720p-AVC)\01_Дерзкое похищение.mkv
Format : Matroska
Format version : Version 4 / Version 2
File size : 112 MiB
Duration : 6mn 30s
Overall bit rate : 2 398 Kbps
Writing application : Lavf56.36.100
Writing library : Lavf56.36.100 / Lavf56.36.100

Video
ID : 1
Format : AVC
Format/Info : Advanced Video Codec
Format profile : High@L3.1
Format settings, CABAC : Yes
Format settings, ReFrames : 4 frames
Codec ID : V_MPEG4/ISO/AVC
Duration : 6mn 30s
Bit rate : 2 158 Kbps
Width : 1 280 pixels
Height : 720 pixels
Display aspect ratio : 16:9
Frame rate mode : Constant
Frame rate : 25.000 fps
Color space : YUV
Chroma subsampling : 4:2:0
Bit depth : 8 bits
Scan type : Progressive
Bits/(Pixel*Frame) : 0.094
Stream size : 100 MiB (90%)
Writing library : x264 core 146 r2538 121396c
Encoding settings : cabac=1 / ref=3 / deblock=1:0:0 / analyse=0x3:0x133 / me=hex / subme=7 / psy=1 / psy_rd=1.00:0.00 / mixed_ref=1 / me_range=16 / chroma_me=1 / trellis=1 / 8x8dct=1 / cqm=0 / deadzone=21,11 / fast_pskip=1 / chroma_qp_offset=-2 / threads=3 / lookahead_threads=1 / sliced_threads=0 / nr=0 / decimate=1 / interlaced=0 / bluray_compat=0 / constrained_intra=0 / bframes=3 / b_pyramid=2 / b_adapt=1 / b_bias=0 / direct=1 / weightb=1 / open_gop=0 / weightp=2 / keyint=250 / keyint_min=25 / scenecut=40 / intra_refresh=0 / rc_lookahead=40 / rc=crf / mbtree=1 / crf=20.0 / qcomp=0.60 / qpmin=10 / qpmax=51 / qpstep=4 / ip_ratio=1.40 / aq=1:1.00
Default : Yes
Forced : No

Audio
ID : 2
Format : AC-3
Format/Info : Audio Coding 3
Mode extension : CM (complete main)
Format settings, Endianness : Big
Codec ID : A_AC3
Duration : 6mn 30s
Bit rate mode : Constant
Bit rate : 192 Kbps
Channel(s) : 2 channels
Channel positions : Front: L R
Sampling rate : 44.1 KHz
Frame rate : 28.711 fps (1536 spf)
Compression mode : Lossy
Delay relative to video : -40ms
Stream size : 8.93 MiB (8%)
Language : unknown
Default : Yes
Forced : No


pic


Информация
Информация Скриншоты Пиры Скачавшие Список файлов
Залил Оценка Просмотров Скачан Файлов
АРХАНГЕЛ 0 2872113

Теги
мультсериал, детский, приключения

Похожие раздачи

Бабай (2014) WEB-DLRip 1.20 GB

Больше похожих раздач →

Список комментариев
Комментарии отсутствуют

Добавить комментарий
Внимание
Гости не могут оставлять комментарии, авторизуйтесь.

Панель навигации

ПОПУЛЯРНЫЕ РАЗДАЧИ
скачать торрент Ледокол (2016) WEB-DLRip | iTunesскачать торрент Доктор Стрэндж (2016) TS
скачать торрент Ледокол (2016) WEB-DL 1080p | iTunesскачать торрент Дуэлянт (2016) CAMRip
скачать торрент Отряд самоубийц (2016) BDRip 1080p | Расширeнная версия | iTunesскачать торрент Джейсон Борн (2016) HDTV 720p | Чистый звук
скачать торрент Первый мститель: Противостояние (2016) BDRip | IMAX Edition | iTunesскачать торрент Тарзан. Легенда (2016) HDRip | iTunes
скачать торрент Dark Souls 3: Deluxe Edition (2016) PC | RePack от xatabскачать торрент Люди Икс: Апокалипсис / X-Men: Apocalypse (2016) BDRip 720p | Лицензия

Будь с нами!


Наши друзья 



Информация, расположенная на данном сервере, предназначена исключительно для частного использования и не может быть загружена/перенесена на другой компьютер. Ни владелец сайта, ни хостинг-провайдер, ни любые другие физические или юридические лица не могут нести никакой отвественностиза любое использование материалов данного сайта.

© 2012-2016 TRACK.KG.