Загрузить Adobe Flash Player
Как тут качать? :: Как встать на раздачу?

Скачать / Download torrent  
Хэш: 8109fcae78ecb19adbfc7b18f04c036be7bd0367
Добавлен: 8 ноября 2015 в 02:54:29
Категория: Фильмы » Зарубежное кино » Комедии / Пародийные
Размер: 1.73 GB
Проверил: АРХАНГЕЛ 8 ноября 2015 в 02:54:29

Раздают: 9 Качают: 21

Кровавая Мэлори / Bloody Mallory (2002) DVDRip-AVC | D

pic

«В жопу зло!»

Название: Кровавая Мэлори
Оригинальное название: Bloody Mallory

Год выхода: 2002
Страна: Франция, Испания / Alquimia Cinema S.A., Canal+ [fr], Film Office…
Жанр: Ужасы, боевик, комедия, пародия
Перевод: Дубляж

Режиссер: Жюльен Манья / Julien Magnat
В ролях: Оливия Бонэми, Адрия Колладо, Джеффри Рибье, Лорен Шпильфогель, Валентина Варгас, Жюльен Бойсселье, Софи Теллье

О фильме: Одним ударом топора прикончив своего мужа, оказавшегося демоном, красотка Мэлори становится вожаком команды боевиков, сражающихся с нечистью. Со своими партнерами — трансвеститом и экспертом по взрывчатке Полой Веной и наделенной сверхъестественными способностями немой девочкой-телепаткой по прозвищу Трещотка Тина — она начинает крестовый поход против Зла.
Узнав, что Папа Римский похищен таинственным существом в металлической маске, Мэлори, Полая Вена и Трещотка Тина отправляются в странную деревню типа Бермудского треугольника, откуда еще не удалось выбраться никому. Здесь, в тайном убежище секты Абаддон, собравшиеся со всей Франции силы Зла приготовили немало ужасных сюрпризов…

pic pic pic pic pic
Качество: DVDRip-AVC
Формат: MKV
Продолжительность: 01:32:00
Видео: AVC, 2500 Kbps, 1024x576
Звук: AC3, 2 ch, 192 Kbps
Субтитры: Английские


General
Unique ID : 177546122645966547857501772200186862769 (0x859223B076B19678983B7D86F1F1DCB1)
Complete name : D:\ДИСК\01.ФИЛЬМЫ\Кровавая Мэлори Bloody Mallory (2002)\Bloody Mallory 2002 DVD-AVC.mkv
Format : Matroska
Format version : Version 4 / Version 2
File size : 1.73 GiB
Duration : 1h 32mn
Overall bit rate : 2 694 Kbps
Movie name : Release by arhangel&vamo
Encoded date : UTC 2015-11-07 20:12:06
Writing application : mkvmerge v8.2.0 ('World of Adventure') 64bit
Writing library : XviD4PSP 6.0 / 54.29.105
DURATION : 01:31:16.556000000
NUMBER_OF_FRAMES : 685
NUMBER_OF_BYTES : 23534
_STATISTICS_WRITING_APP : mkvmerge v8.2.0 ('World of Adventure') 64bit
_STATISTICS_WRITING_DATE_UTC : 2015-11-07 20:12:06
_STATISTICS_TAGS : BPS DURATION NUMBER_OF_FRAMES NUMBER_OF_BYTES

Video
ID : 1
Format : AVC
Format/Info : Advanced Video Codec
Format profile : High@L4.1
Format settings, CABAC : Yes
Format settings, ReFrames : 7 frames
Codec ID : V_MPEG4/ISO/AVC
Duration : 1h 32mn
Bit rate : 2 500 Kbps
Width : 1 024 pixels
Height : 576 pixels
Display aspect ratio : 16:9
Original display aspect ratio : 16:9
Frame rate mode : Constant
Frame rate : 25.000 fps
Color space : YUV
Chroma subsampling : 4:2:0
Bit depth : 8 bits
Scan type : MBAFF
Scan order : Top Field First
Bits/(Pixel*Frame) : 0.170
Stream size : 1.57 GiB (91%)
Writing library : x264 core 128 r2216M 198a7ea
Encoding settings : cabac=1 / ref=8 / deblock=1:-3:-3 / analyse=0x3:0x133 / me=umh / subme=8 / psy=1 / psy_rd=1.00:0.20 / mixed_ref=1 / me_range=16 / chroma_me=1 / trellis=2 / 8x8dct=1 / cqm=0 / deadzone=21,11 / fast_pskip=1 / chroma_qp_offset=-3 / threads=8 / lookahead_threads=1 / sliced_threads=0 / nr=0 / decimate=1 / interlaced=tff / bluray_compat=0 / constrained_intra=0 / bframes=8 / b_pyramid=1 / b_adapt=2 / b_bias=0 / direct=3 / weightb=1 / open_gop=0 / weightp=0 / keyint=250 / keyint_min=25 / scenecut=40 / intra_refresh=0 / rc_lookahead=40 / rc=2pass / mbtree=1 / bitrate=2500 / ratetol=1.0 / qcomp=0.60 / qpmin=0 / qpmax=69 / qpstep=4 / cplxblur=20.0 / qblur=0.5 / ip_ratio=1.40 / aq=1:1.00
Default : Yes
Forced : No
DURATION : 01:32:00.320000000
NUMBER_OF_FRAMES : 138008
NUMBER_OF_BYTES : 1724972779
_STATISTICS_WRITING_APP : mkvmerge v8.2.0 ('World of Adventure') 64bit
_STATISTICS_WRITING_DATE_UTC : 2015-11-07 20:12:06
_STATISTICS_TAGS : BPS DURATION NUMBER_OF_FRAMES NUMBER_OF_BYTES

Audio
ID : 2
Format : AC-3
Format/Info : Audio Coding 3
Mode extension : CM (complete main)
Format settings, Endianness : Big
Codec ID : A_AC3
Duration : 1h 32mn
Bit rate mode : Constant
Bit rate : 192 Kbps
Channel(s) : 2 channels
Channel positions : Front: L R
Sampling rate : 48.0 KHz
Compression mode : Lossy
Stream size : 126 MiB (7%)
Language : Russian
Default : Yes
Forced : No
DURATION : 01:31:59.584000000
NUMBER_OF_FRAMES : 172487
NUMBER_OF_BYTES : 132470016
_STATISTICS_WRITING_APP : mkvmerge v8.2.0 ('World of Adventure') 64bit
_STATISTICS_WRITING_DATE_UTC : 2015-11-07 20:12:06
_STATISTICS_TAGS : BPS DURATION NUMBER_OF_FRAMES NUMBER_OF_BYTES

Text
ID : 3
Format : UTF-8
Codec ID : S_TEXT/UTF8
Codec ID/Info : UTF-8 Plain Text
Language : English
Default : Yes
Forced : No


pic


Информация
Информация Скриншоты Пиры Скачавшие Список файлов
Залил Оценка Просмотров Скачан Файлов
АРХАНГЕЛ 0 330241

Теги
ужасы, боевик, комедия, пародия

Похожие раздачи

Поиск не дал результатов.Больше похожих раздач →

Список комментариев
Комментарии отсутствуют

Добавить комментарий
Внимание
Гости не могут оставлять комментарии, авторизуйтесь.

Панель навигации

ПОПУЛЯРНЫЕ РАЗДАЧИ
скачать торрент Пассажиры (2016) TSскачать торрент Доктор Стрэндж (2016) TS
скачать торрент Отряд самоубийц (2016) BDRip 1080p | Расширeнная версия | iTunesскачать торрент Плохой Санта 2 (2016) WEB-DLRip | iTunes
скачать торрент Первый мститель: Противостояние (2016) BDRip | IMAX Edition | iTunesскачать торрент Джейсон Борн (2016) HDTV 1080p | Чистый звук
скачать торрент Любовь не по размеру (2016) BDRip | Лицензияскачать торрент Глубоководный горизонт (2016) HDRip | iTunes
скачать торрент Волки и овцы: бе-е-е-зумное превращение (2016) WEB-DLRip | Лицензияскачать торрент Голограмма для короля (2016) HDRip | Лицензия

Будь с нами!


Наши друзья 



Информация, расположенная на данном сервере, предназначена исключительно для частного использования и не может быть загружена/перенесена на другой компьютер. Ни владелец сайта, ни хостинг-провайдер, ни любые другие физические или юридические лица не могут нести никакой отвественностиза любое использование материалов данного сайта.

© 2012-2017 TRACK.KG.