Загрузить Adobe Flash Player
Как тут качать? :: Как встать на раздачу?

Скачать / Download torrent  
Хэш: 524b476c626d09af5305a95c432290f4a313a7cb
Добавлен: 4 ноября 2015 в 20:55:06
Категория: Фильмы » Зарубежное кино » Мелодрамы / Драмы
Размер: 2.13 GB
Проверил: АРХАНГЕЛ 4 ноября 2015 в 20:55:06

Раздают: 24 Качают: 12

Нанга-Парбат / Nanga Parbat (2010) BDRip-AVC | A

pic

Название: Нанга-Парбат
Оригинальное название: Nanga Parbat

Год выхода: 2010
Страна: Германия / Perathon Film-und Fernsehproduktions GmbH
Жанр: Драма, биография
Перевод: Авторский (одноголосый) Михаил Чадов

Режиссер: Йозеф Вильсмайер
В ролях: Флориан Штеттер, Андреас Тобиаш, Карл Маркович, Себастиан Беццель, Фолькер Брух, Маттиас Хабих, Михаэль Кранц, Маркус Кроер, Хорст Куммет, Лоренцо Недис

О фильме: История жизни братьев Месснер и, главным образом, их восхождения на вершину Кашмирской долины Гималаев 1970 году. Претерпев неимоверные лишения, тяжёлые физические травмы, на грани истощения, Рейнгольд и Гюнтер достигнут роковой высоты и только тогда до конца осознают, что именно спуск с гор может стоить им жизни.

Вернувшись Рейнгольд Месснер расскажет, что потерял младшего брата из виду спускаясь по западному склону горы Нанга-Парбат, что почти наверняка Гюнтер был сметён лавиной. Свидетели же станут утверждать, что Месснер пожертвовал братом ради своих амбиций: оставил больного Гюнтера для спуска по неизведанному маршруту. Рейнгольд Месснер попробует судиться с коллегами, отправиться на поиски тела брата, совершит ещё не одно выдающееся восхождение, но навсегда останется в тени того трагического происшествия. И только спустя 35 лет одна из великих тайн в истории альпинизма будет раскрыта…


Довольно любопытный фильм. Качественные съемки, интересная история. Главный герой фильма Райнхольд Месснер - итальянский альпинист из немецкоговорящей автономной провинции Южного Тироля, Италия, первым покоривший все 14 «восьмитысячников» мира, некоторые из которых в одиночку. Так что, вполне разумно было снять фильм на немецком языке.
Озвучка по готовым субтитрам. Допереведены сноски с датами. Материал эксклюзивный. Особенно понравится любителям фильмов про альпинизм. В России фильм не выходил.



pic pic pic pic
Качество: BDRip (исх. Blu-Ray Remux 1080p)
Формат: MKV
Продолжительность: 01:43:34
Видео: AVC, 2 500 Kbps, 1024x432
Звук: AC3, 6 ch, 448 Kbps
Субтитры: Русские, английские


General
Unique ID : 224469944819452993551400757038135277825 (0xA8DF56BDD7CB72C894446D2172267901)
Complete name : D:\ДИСК\01.ФИЛЬМЫ\Нанга-Парбат Nanga Parbat (2010)\Nanga.Parbat.2010.BDRip-AVC.mkv
Format : Matroska
Format version : Version 4 / Version 2
File size : 2.13 GiB
Duration : 1h 43mn
Overall bit rate : 2 949 Kbps
Movie name : Release by arhangel&vamo
Encoded date : UTC 2015-07-31 08:33:34
Writing application : mkvmerge v8.2.0 ('World of Adventure') 64bit
Writing library : XviD4PSP 6.0 / 54.29.105
DURATION : 01:37:24.256000000
NUMBER_OF_FRAMES : 884
NUMBER_OF_BYTES : 27770
_STATISTICS_WRITING_APP : mkvmerge v8.2.0 ('World of Adventure') 64bit
_STATISTICS_WRITING_DATE_UTC : 2015-11-04 14:39:50
_STATISTICS_TAGS : BPS DURATION NUMBER_OF_FRAMES NUMBER_OF_BYTES

Video
ID : 1
Format : AVC
Format/Info : Advanced Video Codec
Format profile : High@L4.1
Format settings, CABAC : Yes
Format settings, ReFrames : 7 frames
Codec ID : V_MPEG4/ISO/AVC
Duration : 1h 43mn
Bit rate : 2 500 Kbps
Width : 1 024 pixels
Height : 432 pixels
Display aspect ratio : 2.35:1
Original display aspect ratio : 2.35:1
Frame rate mode : Constant
Frame rate : 24.000 fps
Color space : YUV
Chroma subsampling : 4:2:0
Bit depth : 8 bits
Scan type : Progressive
Bits/(Pixel*Frame) : 0.235
Stream size : 1.77 GiB (83%)
Writing library : x264 core 128 r2216M 198a7ea
Encoding settings : cabac=1 / ref=8 / deblock=1:-3:-3 / analyse=0x3:0x133 / me=umh / subme=8 / psy=1 / psy_rd=1.00:0.20 / mixed_ref=1 / me_range=16 / chroma_me=1 / trellis=2 / 8x8dct=1 / cqm=0 / deadzone=21,11 / fast_pskip=1 / chroma_qp_offset=-3 / threads=8 / lookahead_threads=1 / sliced_threads=0 / nr=0 / decimate=1 / interlaced=0 / bluray_compat=0 / constrained_intra=0 / bframes=8 / b_pyramid=1 / b_adapt=2 / b_bias=0 / direct=3 / weightb=1 / open_gop=0 / weightp=2 / keyint=240 / keyint_min=24 / scenecut=40 / intra_refresh=0 / rc_lookahead=40 / rc=2pass / mbtree=1 / bitrate=2500 / ratetol=1.0 / qcomp=0.60 / qpmin=0 / qpmax=69 / qpstep=4 / cplxblur=20.0 / qblur=0.5 / ip_ratio=1.40 / aq=1:1.00
Language : German
Default : Yes
Forced : No
DURATION : 01:43:34.334000000
NUMBER_OF_FRAMES : 149144
NUMBER_OF_BYTES : 1941166372
_STATISTICS_WRITING_APP : mkvmerge v8.2.0 ('World of Adventure') 64bit
_STATISTICS_WRITING_DATE_UTC : 2015-11-04 14:39:50
_STATISTICS_TAGS : BPS DURATION NUMBER_OF_FRAMES NUMBER_OF_BYTES

Audio
ID : 2
Format : AC-3
Format/Info : Audio Coding 3
Mode extension : CM (complete main)
Format settings, Endianness : Big
Codec ID : A_AC3
Duration : 1h 43mn
Bit rate mode : Constant
Bit rate : 448 Kbps
Channel(s) : 6 channels
Channel positions : Front: L C R, Side: L R, LFE
Sampling rate : 48.0 KHz
Compression mode : Lossy
Stream size : 332 MiB (15%)
Title : A
Language : Russian
Default : Yes
Forced : No
DURATION : 01:43:34.400000000
NUMBER_OF_FRAMES : 194200
NUMBER_OF_BYTES : 348006400
_STATISTICS_WRITING_APP : mkvmerge v8.2.0 ('World of Adventure') 64bit
_STATISTICS_WRITING_DATE_UTC : 2015-11-04 14:39:50
_STATISTICS_TAGS : BPS DURATION NUMBER_OF_FRAMES NUMBER_OF_BYTES

Text #1
ID : 3
Format : UTF-8
Codec ID : S_TEXT/UTF8
Codec ID/Info : UTF-8 Plain Text
Language : Russian
Default : Yes
Forced : No

Text #2
ID : 4
Format : UTF-8
Codec ID : S_TEXT/UTF8
Codec ID/Info : UTF-8 Plain Text
Language : English
Default : No
Forced : No



pic


Информация
Информация Скриншоты Пиры Скачавшие Список файлов
Залил Оценка Просмотров Скачан Файлов
АРХАНГЕЛ 0 364181

Теги
драма, биография

Похожие раздачи

Поиск не дал результатов.Больше похожих раздач →

Список комментариев
Комментарии отсутствуют

Добавить комментарий
Внимание
Гости не могут оставлять комментарии, авторизуйтесь.

Панель навигации

ПОПУЛЯРНЫЕ РАЗДАЧИ
скачать торрент Ледокол (2016) WEB-DLRip | iTunesскачать торрент Доктор Стрэндж (2016) TS
скачать торрент Ледокол (2016) WEB-DL 1080p | iTunesскачать торрент Дуэлянт (2016) CAMRip
скачать торрент Отряд самоубийц (2016) BDRip 1080p | Расширeнная версия | iTunesскачать торрент Джейсон Борн (2016) HDTV 720p | Чистый звук
скачать торрент Первый мститель: Противостояние (2016) BDRip | IMAX Edition | iTunesскачать торрент Тарзан. Легенда (2016) HDRip | iTunes
скачать торрент Dark Souls 3: Deluxe Edition (2016) PC | RePack от xatabскачать торрент Люди Икс: Апокалипсис / X-Men: Apocalypse (2016) BDRip 720p | Лицензия

Будь с нами!


Наши друзья 



Информация, расположенная на данном сервере, предназначена исключительно для частного использования и не может быть загружена/перенесена на другой компьютер. Ни владелец сайта, ни хостинг-провайдер, ни любые другие физические или юридические лица не могут нести никакой отвественностиза любое использование материалов данного сайта.

© 2012-2016 TRACK.KG.