Загрузить Adobe Flash Player
Как тут качать? :: Как встать на раздачу?

Скачать / Download torrent  
Хэш: 4e47854b94adf9b2d8c3e4e5e2841bc2de7b9ae4
Добавлен: 3 ноября 2015 в 19:52:56
Категория: Фильмы » Зарубежное кино » Триллеры / Криминал
Размер: 2.13 GB
Проверил: АРХАНГЕЛ 3 ноября 2015 в 19:52:56

Раздают: 59 Качают: 30

Я плюю на ваши могилы 3 / I Spit on Your Grave 3 (2015) BDRip-AVC | iTunes

pic

Название: Я плюю на ваши могилы 3
Оригинальное название: I Spit on Your Grave 3

Год выхода: 2015
Страна: США / Cinetel Films
Жанр: триллер, ужасы, криминал
Перевод: Профессиональный многоголосый iTunes

Режиссер: Р.Д. Браунштейн
В ролях: Сара Батлер, Даг МакКиэн, Гэбриел Хоган, Дженнифер Лэндон, Кристофер Хоффман, Кори Крэйг, Джошуа Ковальчик, Бобби Рид, Лони Перрин

О фильме: Главная героиня фильма писательница Дженнифер Хиллз начала новую жизнь. Она посещает психотерапевта, и кризисную группу для жертв изнасилований. В группе она знакомится с бойкой и яркой девушкой, которая убеждает её, что месть — это и есть правосудие. Вместе, они запугивают мужчину, который насилует свою падчерицу-подростка из их группы. А потом, подругу насилует и убивает её бывший парень. Пришло время Дженнифер встретиться со своим прошлым. Понесут ли преступники заслуженное наказание? И по какую сторону окажется сама Дженнифер?

pic pic pic pic
Качество: BDRip-AVC (исх. BDRemux 1080p)
Формат: MKV
Продолжительность: 01:31:30
Видео: AVC, 2500 Kbps, 1024x432
Звук: Русский: AC3, 6 ch, 384 kbps, английский: AC3, 6 ch, 448 kbps
Субтитры: Английскиу


General
Unique ID : 203028204955181472095448173170114019054 (0x98BDCF58BDD0A8A5B7C461488C9DBEEE)
Complete name : D:\ДИСК\01.ФИЛЬМЫ\Я плюю на ваши могилы 3 I Spit on Your Grave 3 (2015)\I.Spit.on.Your.Grave.3.2015.BDRip-AVC.mkv
Format : Matroska
Format version : Version 4 / Version 2
File size : 2.13 GiB
Duration : 1h 31mn
Overall bit rate : 3 334 Kbps
Movie name : arhangel&vamo
Encoded date : UTC 2015-11-03 04:57:12
Writing application : mkvmerge v8.2.0 ('World of Adventure') 64bit
Writing library : XviD4PSP 6.0 / 54.29.105
DURATION : 01:26:34.770000000
NUMBER_OF_FRAMES : 1294
NUMBER_OF_BYTES : 42536
_STATISTICS_WRITING_APP : mkvmerge v8.2.0 ('World of Adventure') 64bit
_STATISTICS_WRITING_DATE_UTC : 2015-11-03 13:26:50
_STATISTICS_TAGS : BPS DURATION NUMBER_OF_FRAMES NUMBER_OF_BYTES

Video
ID : 1
Format : AVC
Format/Info : Advanced Video Codec
Format profile : High@L4.1
Format settings, CABAC : Yes
Format settings, ReFrames : 7 frames
Codec ID : V_MPEG4/ISO/AVC
Duration : 1h 31mn
Bit rate : 2 500 Kbps
Width : 1 024 pixels
Height : 432 pixels
Display aspect ratio : 2.40:1
Original display aspect ratio : 2.40:1
Frame rate mode : Constant
Frame rate : 23.976 fps
Color space : YUV
Chroma subsampling : 4:2:0
Bit depth : 8 bits
Scan type : Progressive
Bits/(Pixel*Frame) : 0.236
Stream size : 1.56 GiB (73%)
Writing library : x264 core 128 r2216M 198a7ea
Encoding settings : cabac=1 / ref=8 / deblock=1:-3:-3 / analyse=0x3:0x133 / me=umh / subme=8 / psy=1 / psy_rd=1.00:0.20 / mixed_ref=1 / me_range=16 / chroma_me=1 / trellis=2 / 8x8dct=1 / cqm=0 / deadzone=21,11 / fast_pskip=1 / chroma_qp_offset=-3 / threads=8 / lookahead_threads=1 / sliced_threads=0 / nr=0 / decimate=1 / interlaced=0 / bluray_compat=0 / constrained_intra=0 / bframes=8 / b_pyramid=1 / b_adapt=2 / b_bias=0 / direct=3 / weightb=1 / open_gop=0 / weightp=2 / keyint=230 / keyint_min=23 / scenecut=40 / intra_refresh=0 / rc_lookahead=40 / rc=2pass / mbtree=1 / bitrate=2500 / ratetol=1.0 / qcomp=0.60 / qpmin=0 / qpmax=69 / qpstep=4 / cplxblur=20.0 / qblur=0.5 / ip_ratio=1.40 / aq=1:1.00
Default : Yes
Forced : No
DURATION : 01:31:30.569000000
NUMBER_OF_FRAMES : 131642
NUMBER_OF_BYTES : 1715566420
_STATISTICS_WRITING_APP : mkvmerge v8.2.0 ('World of Adventure') 64bit
_STATISTICS_WRITING_DATE_UTC : 2015-11-03 13:26:50
_STATISTICS_TAGS : BPS DURATION NUMBER_OF_FRAMES NUMBER_OF_BYTES

Audio #1
ID : 2
Format : AC-3
Format/Info : Audio Coding 3
Mode extension : CM (complete main)
Format settings, Endianness : Big
Codec ID : A_AC3
Duration : 1h 31mn
Bit rate mode : Constant
Bit rate : 384 Kbps
Channel(s) : 6 channels
Channel positions : Front: L C R, Side: L R, LFE
Sampling rate : 48.0 KHz
Compression mode : Lossy
Delay relative to video : 27ms
Stream size : 251 MiB (12%)
Language : Russian
Default : Yes
Forced : No
DURATION : 01:31:30.496000000
NUMBER_OF_FRAMES : 171578
NUMBER_OF_BYTES : 263543808
_STATISTICS_WRITING_APP : mkvmerge v8.2.0 ('World of Adventure') 64bit
_STATISTICS_WRITING_DATE_UTC : 2015-11-03 13:26:50
_STATISTICS_TAGS : BPS DURATION NUMBER_OF_FRAMES NUMBER_OF_BYTES

Audio #2
ID : 3
Format : AC-3
Format/Info : Audio Coding 3
Mode extension : CM (complete main)
Format settings, Endianness : Big
Codec ID : A_AC3
Duration : 1h 31mn
Bit rate mode : Constant
Bit rate : 448 Kbps
Channel(s) : 6 channels
Channel positions : Front: L C R, Side: L R, LFE
Sampling rate : 48.0 KHz
Compression mode : Lossy
Delay relative to video : 69ms
Stream size : 293 MiB (13%)
Language : English
Default : No
Forced : No
DURATION : 01:31:30.464000000
NUMBER_OF_FRAMES : 171577
NUMBER_OF_BYTES : 307465984
_STATISTICS_WRITING_APP : mkvmerge v8.2.0 ('World of Adventure') 64bit
_STATISTICS_WRITING_DATE_UTC : 2015-11-03 13:26:50
_STATISTICS_TAGS : BPS DURATION NUMBER_OF_FRAMES NUMBER_OF_BYTES

Text
ID : 4
Format : UTF-8
Codec ID : S_TEXT/UTF8
Codec ID/Info : UTF-8 Plain Text
Language : English
Default : Yes
Forced : No



pic


Информация
Информация Скриншоты Пиры Скачавшие Список файлов
Залил Оценка Просмотров Скачан Файлов
АРХАНГЕЛ 0 245201

Теги
триллер, ужасы, криминал

Похожие раздачи

Я плюю на ваши могилы 2 / I Spit On Your Grave 2 (2013) DVD9 | P | Лицензия 7.05 GB

Я плюю на ваши могилы 2 / I Spit On Your Grave 2 (UNRATED) (2013) [Ужасы, триллер, криминал] BDRip-AVC | Dub {чистый звук} + En 1.79 GB

Я плюю на ваши могилы 2 / I Spit On Your Grave 2 (2013) [Триллер, Ужасы, Криминал] BDRip 720p | Unrated Cut | MVO + VO + Origina 4.87 GB

Больше похожих раздач →

Список комментариев
Комментарии отсутствуют

Добавить комментарий
Внимание
Гости не могут оставлять комментарии, авторизуйтесь.

Панель навигации

ПОПУЛЯРНЫЕ РАЗДАЧИ
скачать торрент Ледокол (2016) WEB-DLRip | iTunesскачать торрент Ледокол (2016) WEB-DL 1080p | iTunes
скачать торрент Дуэлянт (2016) CAMRipскачать торрент Отряд самоубийц (2016) BDRip 1080p | Расширeнная версия | iTunes
скачать торрент Джейсон Борн (2016) HDTV 720p | Чистый звукскачать торрент Первый мститель: Противостояние (2016) BDRip | IMAX Edition | iTunes
скачать торрент Тарзан. Легенда (2016) HDRip | iTunesскачать торрент Dark Souls 3: Deluxe Edition (2016) PC | RePack от xatab
скачать торрент Люди Икс: Апокалипсис / X-Men: Apocalypse (2016) BDRip 720p | Лицензияскачать торрент Полтора шпиона (2016) BDRip 1080p | Лицензия

Будь с нами!


Наши друзья 



Информация, расположенная на данном сервере, предназначена исключительно для частного использования и не может быть загружена/перенесена на другой компьютер. Ни владелец сайта, ни хостинг-провайдер, ни любые другие физические или юридические лица не могут нести никакой отвественностиза любое использование материалов данного сайта.

© 2012-2016 TRACK.KG.