Загрузить Adobe Flash Player
Как тут качать? :: Как встать на раздачу?

Скачать / Download torrent  
Хэш: 081b6af1b932b2d7838adfa1305176977d3ff8b4
Добавлен: 17 октября 2015 в 22:24:03
Категория: Фильмы » Зарубежное кино » Триллеры / Криминал
Размер: 1.81 GB
Проверил: АРХАНГЕЛ 17 октября 2015 в 22:24:03

Раздают: 138 Качают: 52

Джон Доу / John Doe: Vigilante (2014) HDRip-AVC | L2

pic

«Герой или злодей? Справедливость или Месть? Решать Вам»

Название: Джон Доу
Оригинальное название: John Doe: Vigilante

Год выхода: 2014
Страна: Австралия / Rapidfire Entertainment, Screen Corporation
Жанр: триллер, криминал
Перевод: Любительский (двухголосый) den904 & DeadSno (перевод Сергей Скворцов)

Режиссер: Келли Долен
В ролях: Джэйми Бамбер, Дэниэль Лиссинг, Пол ОБрайен, Дитч Дэйви, Харри Павлидис, Луиз Кроуфорд, Флетчер Хамфрис, Бен Шуманн, Деннис Илик, Брук Райан, Брендан Клиркин, Сэм Парсонсон, Хлоэ Гаймер, Ричард Ламбет

О фильме: Некоторые называют его героем. Некоторые - злодеем. Он - Джон Доу - обычный человек, который решает взять закон в свои руки. Разочарованный правовой системой, которая позволяет преступникам разгуливать на свободе, Джон Доу начинает сам вершить правосудие единственным известным ему методом - убивая преступников...

pic pic pic pic pic pic
Качество: HDRip-AVC
Формат: MKV
Продолжительность: 01:33:24
Видео: AVC, 1024x432, 2080 Kbps
Звук: Russian: AC3, 192 Kb/s (2 ch) / English: AC3, 448 Kb/s (6 ch)
Субтитры: English


General
Unique ID : 233135922816969616324147013878824278565 (0xAF645871CE904EFC8905C2F1FCEF9A25)
Complete name : D:\ДИСК\01.ФИЛЬМЫ\Джон Доу John Doe Vigilante (2014)\Dzhon.Dou.2014.L2.HDRip-AVC.mkv
Format : Matroska
Format version : Version 4 / Version 2
File size : 1.81 GiB
Duration : 1h 33mn
Overall bit rate : 2 775 Kbps
Movie name : Release by ARHANGEL&vamo
Encoded date : UTC 2015-10-17 14:04:29
Writing application : mkvmerge v8.2.0 ('World of Adventure') 64bit
Writing library : Lavf56.25.101
ENCODING_INFO : MATROSKA,WEBM > MKV 720p / H264 > X264 CBR 2200kbps Custom / AC3 > COPY
DURATION : 01:27:59.805000000
NUMBER_OF_FRAMES : 1238
NUMBER_OF_BYTES : 44364
_STATISTICS_WRITING_APP : mkvmerge v8.2.0 ('World of Adventure') 64bit
_STATISTICS_WRITING_DATE_UTC : 2015-10-17 14:04:29
_STATISTICS_TAGS : BPS DURATION NUMBER_OF_FRAMES NUMBER_OF_BYTES

Video
ID : 1
Format : AVC
Format/Info : Advanced Video Codec
Format profile : High@L4.1
Format settings, CABAC : Yes
Format settings, ReFrames : 8 frames
Codec ID : V_MPEG4/ISO/AVC
Duration : 1h 33mn
Bit rate : 2 080 Kbps
Nominal bit rate : 2 200 Kbps
Width : 1 024 pixels
Height : 432 pixels
Display aspect ratio : 2.40:1
Frame rate mode : Constant
Frame rate : 24.000 fps
Color space : YUV
Chroma subsampling : 4:2:0
Bit depth : 8 bits
Scan type : Progressive
Bits/(Pixel*Frame) : 0.196
Stream size : 1.36 GiB (75%)
Writing library : x264 core 148 r2597M e86f3a1
Encoding settings : cabac=1 / ref=8 / deblock=1:-3:-3 / analyse=0x3:0x133 / me=umh / subme=8 / psy=1 / psy_rd=1.00:0.20 / mixed_ref=1 / me_range=16 / chroma_me=1 / trellis=2 / 8x8dct=1 / cqm=0 / deadzone=21,11 / fast_pskip=1 / chroma_qp_offset=-3 / threads=9 / lookahead_threads=3 / sliced_threads=0 / nr=0 / decimate=1 / interlaced=0 / bluray_compat=0 / constrained_intra=0 / bframes=8 / b_pyramid=2 / b_adapt=2 / b_bias=0 / direct=3 / weightb=1 / open_gop=0 / weightp=2 / keyint=240 / keyint_min=24 / scenecut=40 / intra_refresh=0 / rc_lookahead=40 / rc=cbr / mbtree=1 / bitrate=2200 / ratetol=1.0 / qcomp=0.60 / qpmin=0 / qpmax=69 / qpstep=4 / vbv_maxrate=2200 / vbv_bufsize=5000 / nal_hrd=none / filler=0 / ip_ratio=1.40 / aq=1:1.00
Language : English
Default : Yes
Forced : No
DURATION : 01:33:24.000000000
NUMBER_OF_FRAMES : 134496
NUMBER_OF_BYTES : 1493365115
_STATISTICS_WRITING_APP : mkvmerge v8.2.0 ('World of Adventure') 64bit
_STATISTICS_WRITING_DATE_UTC : 2015-10-17 14:04:29
_STATISTICS_TAGS : BPS DURATION NUMBER_OF_FRAMES NUMBER_OF_BYTES

Audio #1
ID : 2
Format : AC-3
Format/Info : Audio Coding 3
Mode extension : CM (complete main)
Format settings, Endianness : Big
Codec ID : A_AC3
Duration : 1h 33mn
Bit rate mode : Constant
Bit rate : 192 Kbps
Channel(s) : 2 channels
Channel positions : Front: L R
Sampling rate : 48.0 KHz
Compression mode : Lossy
Stream size : 128 MiB (7%)
Title : [den904 & DeadSno]
Language : Russian
Default : Yes
Forced : No
DURATION : 01:33:24.000000000
NUMBER_OF_FRAMES : 175125
NUMBER_OF_BYTES : 134496000
_STATISTICS_WRITING_APP : mkvmerge v8.2.0 ('World of Adventure') 64bit
_STATISTICS_WRITING_DATE_UTC : 2015-10-17 14:04:29
_STATISTICS_TAGS : BPS DURATION NUMBER_OF_FRAMES NUMBER_OF_BYTES

Audio #2
ID : 3
Format : AC-3
Format/Info : Audio Coding 3
Mode extension : CM (complete main)
Format settings, Endianness : Big
Codec ID : A_AC3
Duration : 1h 33mn
Bit rate mode : Constant
Bit rate : 448 Kbps
Channel(s) : 6 channels
Channel positions : Front: L C R, Side: L R, LFE
Sampling rate : 48.0 KHz
Compression mode : Lossy
Stream size : 299 MiB (16%)
Title : Original
Language : English
Default : No
Forced : No

Text
ID : 4
Format : UTF-8
Codec ID : S_TEXT/UTF8
Codec ID/Info : UTF-8 Plain Text
Language : English
Default : Yes
Forced : No


pic


Информация
Информация Скриншоты Пиры Скачавшие Список файлов
Залил Оценка Просмотров Скачан Файлов
АРХАНГЕЛ 0 285201

Теги
триллер, криминал

Похожие раздачи

Джон Уик / John Wick (2014) BDRip 1080p | Чистый звук 6.64 GB

Джон Уик / John Wick (2014) HDRip | Чистый звук 1.37 GB

Джон Уик / John Wick (2014) BDRip 720p | Чистый звук 4.46 GB

Святой Джон из Лас-Вегаса / Saint John of Las Vegas (2009) BDRip 720p 3.72 GB

Джон Уик / John Wick (2014) WEB-DLRip-AVC | Чистый звук 1.94 GB

OST - Джон Уик / John Wick (2014) MP3 155.40 MB

В финале Джон умрет / John Dies at the End (2012) BDRip-AVC | P, L2, L1 2.60 GB

В финале Джон умрет / John Dies at the End (2012) [Фантастика, Ужасы] HDRip | DVO 1.37 GB

В финале Джон умрет / John Dies at the End (2012) [Комедия, фантастика, ужасы] HDRip | VO {acolith} 1.35 GB

Джон Картер / John Carter (2012) BDRip 1080p от NOLIMITS-TEAM 4.37 GB

Больше похожих раздач →

Список комментариев
Комментарии отсутствуют

Добавить комментарий
Внимание
Гости не могут оставлять комментарии, авторизуйтесь.

Панель навигации

ПОПУЛЯРНЫЕ РАЗДАЧИ
скачать торрент Ледокол (2016) WEB-DLRip | iTunesскачать торрент Доктор Стрэндж (2016) TS
скачать торрент Ледокол (2016) WEB-DL 1080p | iTunesскачать торрент Дуэлянт (2016) CAMRip
скачать торрент Отряд самоубийц (2016) BDRip 1080p | Расширeнная версия | iTunesскачать торрент Джейсон Борн (2016) HDTV 720p | Чистый звук
скачать торрент Первый мститель: Противостояние (2016) BDRip | IMAX Edition | iTunesскачать торрент Тарзан. Легенда (2016) HDRip | iTunes
скачать торрент Полтора шпиона (2016) BDRip 1080p | Лицензияскачать торрент Джейсон Борн (2016) HDTV 1080p | Чистый звук

Будь с нами!


Наши друзья 



Информация, расположенная на данном сервере, предназначена исключительно для частного использования и не может быть загружена/перенесена на другой компьютер. Ни владелец сайта, ни хостинг-провайдер, ни любые другие физические или юридические лица не могут нести никакой отвественностиза любое использование материалов данного сайта.

© 2012-2016 TRACK.KG.