Загрузить Adobe Flash Player
Как тут качать? :: Как встать на раздачу?

Скачать / Download torrent  
Хэш: 8fa76fa5c86442d92abacc09586ecc81aa42e56d
Добавлен: 17 октября 2015 в 14:23:55
Категория: Фильмы » Зарубежное кино » Триллеры / Криминал
Размер: 1.89 GB
Проверил: АРХАНГЕЛ 17 октября 2015 в 14:23:55

Раздают: 53 Качают: 28

Партизан / Partisan (2015) WEB-DLRip-AVC | L1

pic

Название: Партизан
Оригинальное название: Partisan

Год выхода: 2015
Страна: Австралия / Animal Kingdom, Warp Films Australia
Жанр: триллер, драма
Перевод: Любительский (одноголосый) Райм Закиров

Режиссер: Эриель Клейман
В ролях: Венсан Кассель, Найджел Барбер, Jeremy Chabriel, Florence Mezzara, Тимоти Стайлз, Sapidah Kian, Сосина Вогаху, Natalia Gorbacheva, Katalin Hegedus, Csenge Birloni

О фильме: Речь в фильме пойдет о деспотичном отце семейства, который растит своих детей в изоляции от окружающего мира и прививает им человеконенавистническое восприятие общества. Повествование будет вестись от имени 11-летнего мальчика, осуждающего радикальные взгляды на жизнь своего отца.

pic pic pic pic
Качество: WEB-DLRip-AVC
Формат: MKV
Продолжительность: 01:38:03
Видео: AVC, 1024x432, 1875 Kbps
Звук: Russian: AC3, 448 kb/s (6 ch) / English: AC3, 384 kb/s (6 ch)


General
Unique ID : 188349956308232717901532325743035331287 (0x8DB2E1D081A3F04A273050B8137EB2D7)
Complete name : D:\ДИСК\01.ФИЛЬМЫ\Партизан Partisan (2015)\Partisan.2015.L1.WEB-DL.720p_encoded.mkv
Format : Matroska
Format version : Version 4 / Version 2
File size : 1.89 GiB
Duration : 1h 38mn
Overall bit rate : 2 761 Kbps
Writing application : XviD4PSP 7.0.176
Writing library : Lavf56.25.101
ENCODING_INFO : MATROSKA,WEBM > MKV / H264 > X264 CBR 2000kbps Custom / AC3 > COPY / AC3 > COPY

Video
ID : 1
Format : AVC
Format/Info : Advanced Video Codec
Format profile : High@L4.1
Format settings, CABAC : Yes
Format settings, ReFrames : 8 frames
Codec ID : V_MPEG4/ISO/AVC
Duration : 1h 38mn
Bit rate : 1 875 Kbps
Nominal bit rate : 2 000 Kbps
Width : 1 024 pixels
Height : 432 pixels
Display aspect ratio : 2.40:1
Frame rate mode : Constant
Frame rate : 23.976 fps
Color space : YUV
Chroma subsampling : 4:2:0
Bit depth : 8 bits
Scan type : Progressive
Bits/(Pixel*Frame) : 0.177
Stream size : 1.28 GiB (68%)
Writing library : x264 core 148 r2597M e86f3a1
Encoding settings : cabac=1 / ref=8 / deblock=1:-3:-3 / analyse=0x3:0x133 / me=umh / subme=8 / psy=1 / psy_rd=1.00:0.15 / mixed_ref=1 / me_range=16 / chroma_me=1 / trellis=2 / 8x8dct=1 / cqm=0 / deadzone=21,11 / fast_pskip=1 / chroma_qp_offset=-3 / threads=9 / lookahead_threads=3 / sliced_threads=0 / nr=0 / decimate=1 / interlaced=0 / bluray_compat=0 / constrained_intra=0 / bframes=8 / b_pyramid=2 / b_adapt=2 / b_bias=0 / direct=3 / weightb=1 / open_gop=0 / weightp=2 / keyint=230 / keyint_min=23 / scenecut=40 / intra_refresh=0 / rc_lookahead=40 / rc=cbr / mbtree=1 / bitrate=2000 / ratetol=1.0 / qcomp=0.60 / qpmin=0 / qpmax=69 / qpstep=4 / vbv_maxrate=2000 / vbv_bufsize=3000 / nal_hrd=none / filler=0 / ip_ratio=1.40 / aq=1:1.00
Language : English
Default : Yes
Forced : No
Color range : Limited
Color primaries : BT.709
Transfer characteristics : BT.709
Matrix coefficients : BT.709

Audio #1
ID : 2
Format : AC-3
Format/Info : Audio Coding 3
Mode extension : CM (complete main)
Format settings, Endianness : Big
Codec ID : A_AC3
Duration : 1h 38mn
Bit rate mode : Constant
Bit rate : 448 Kbps
Channel(s) : 6 channels
Channel positions : Front: L C R, Side: L R, LFE
Sampling rate : 48.0 KHz
Bit depth : 32 bits
Compression mode : Lossy
Stream size : 314 MiB (16%)
Language : Russian
Default : Yes
Forced : No

Audio #2
ID : 3
Format : AC-3
Format/Info : Audio Coding 3
Mode extension : CM (complete main)
Format settings, Endianness : Big
Codec ID : A_AC3
Duration : 1h 38mn
Bit rate mode : Constant
Bit rate : 384 Kbps
Channel(s) : 6 channels
Channel positions : Front: L C R, Side: L R, LFE
Sampling rate : 48.0 KHz
Bit depth : 32 bits
Compression mode : Lossy
Stream size : 269 MiB (14%)
Language : English
Default : No
Forced : No

Menu
00:00:00.000 : :1
00:07:20.000 : :2
00:16:48.000 : :3
00:24:10.000 : :4
00:34:28.000 : :5
00:44:25.000 : :6
00:54:03.000 : :7
01:03:06.000 : :8
01:11:32.000 : :9
01:21:19.000 : :10
01:27:36.000 : :11


pic


Информация
Информация Скриншоты Пиры Скачавшие Список файлов
Залил Оценка Просмотров Скачан Файлов
АРХАНГЕЛ 0 244131

Теги
триллер, драма

Похожие раздачи

Партизанская правда партизан: Скотина... Скотина, гад, сука! (по фильму "Трюкач" 1980 г.) (2012) WEB-DLRip 1.33 GB

Больше похожих раздач →

Список комментариев
Комментарии отсутствуют

Добавить комментарий
Внимание
Гости не могут оставлять комментарии, авторизуйтесь.

Панель навигации

ПОПУЛЯРНЫЕ РАЗДАЧИ
скачать торрент Ледокол (2016) WEB-DLRip | iTunesскачать торрент Доктор Стрэндж (2016) TS
скачать торрент Ледокол (2016) WEB-DL 1080p | iTunesскачать торрент Дуэлянт (2016) CAMRip
скачать торрент Отряд самоубийц (2016) BDRip 1080p | Расширeнная версия | iTunesскачать торрент Джейсон Борн (2016) HDTV 720p | Чистый звук
скачать торрент Первый мститель: Противостояние (2016) BDRip | IMAX Edition | iTunesскачать торрент Тарзан. Легенда (2016) HDRip | iTunes
скачать торрент Dark Souls 3: Deluxe Edition (2016) PC | RePack от xatabскачать торрент Люди Икс: Апокалипсис / X-Men: Apocalypse (2016) BDRip 720p | Лицензия

Будь с нами!


Наши друзья 



Информация, расположенная на данном сервере, предназначена исключительно для частного использования и не может быть загружена/перенесена на другой компьютер. Ни владелец сайта, ни хостинг-провайдер, ни любые другие физические или юридические лица не могут нести никакой отвественностиза любое использование материалов данного сайта.

© 2012-2016 TRACK.KG.