Загрузить Adobe Flash Player
Как тут качать? :: Как встать на раздачу?

Скачать / Download torrent  
Хэш: 60d3cf05a4ab307c37428eb3336d34162e34c028
Добавлен: 15 октября 2015 в 13:52:10
Категория: Фильмы » Российские фильмы
Размер: 2.27 GB
Проверил: АРХАНГЕЛ 15 октября 2015 в 13:52:10

Раздают: 24 Качают: 13

Секрет Зоар / The Zohar Secret (2015) WEBRip-AVC

pic

«Человек – это маленький Мир. Мир – это гигантский Человек»

Название: Секрет Зоар
Оригинальное название: The Zohar Secret

Год выхода: 2015
Страна: Израиль, США, Украина, Россия, Испания
Жанр: фантастика, драма, комедия
Перевод: не требуется (русский)

Режиссер: Владэк Занковски
В ролях: Александр Демидов, Ирина Баринова, Генри Давид, Рой Мирон, Олег Фендюра, Светлана Демидов, Сергей Попов, Игал Резник, Юрий Ядыкин, Владимир Золин

О фильме: В руки Макса попал древний свиток, в котором была описана вся история человечества от начала и до самого конца. Попытавшись воспользоваться этой информацией в собственных интересах, Макс запускает механизм, который начинает влиять на его жизнь.

pic pic pic pic
Качество: WEBRip-AVC
Формат: MKV
Продолжительность: 02:03:49
Видео: AVC, 1024x432, 2500 Kbps
Звук: MP3, 2 ch, 128 Kbps

General
Unique ID : 252251418109485040043751538451691814477 (0xBDC5DB2087B5BBD1B031FE80A3EF3E4D)
Complete name : D:\ДИСК\01.ФИЛЬМЫ\Секрет Зоар The Zohar Secret (2015)\The Zohar Secret (2015) WEBRip-AVC.mkv
Format : Matroska
Format version : Version 4 / Version 2
File size : 2.27 GiB
Duration : 2h 3mn
Overall bit rate mode : Variable
Overall bit rate : 2 623 Kbps
Movie name : Release by ARHANGEL&vamo
Encoded date : UTC 2015-10-15 07:16:56
Writing application : mkvmerge v8.2.0 ('World of Adventure') 64bit
Writing library : Lavf56.25.101
ENCODING_INFO : MATROSKA,WEBM > MKV / H264 > X264 CBR 2500kbps Custom / MP3 > COPY

Video
ID : 1
Format : AVC
Format/Info : Advanced Video Codec
Format profile : High@L4.1
Format settings, CABAC : Yes
Format settings, ReFrames : 8 frames
Codec ID : V_MPEG4/ISO/AVC
Duration : 2h 3mn
Bit rate mode : Variable
Bit rate : 2 500 Kbps
Width : 1 024 pixels
Height : 432 pixels
Display aspect ratio : 2.40:1
Original display aspect ratio : 2.40:1
Frame rate mode : Constant
Frame rate : 24.000 fps
Color space : YUV
Chroma subsampling : 4:2:0
Bit depth : 8 bits
Scan type : Progressive
Bits/(Pixel*Frame) : 0.235
Stream size : 2.11 GiB (93%)
Writing library : x264 core 148 r2597M e86f3a1
Encoding settings : cabac=1 / ref=8 / deblock=1:-3:-3 / analyse=0x3:0x133 / me=umh / subme=8 / psy=1 / psy_rd=1.00:0.15 / mixed_ref=1 / me_range=16 / chroma_me=1 / trellis=2 / 8x8dct=1 / cqm=0 / deadzone=21,11 / fast_pskip=1 / chroma_qp_offset=-3 / threads=8 / lookahead_threads=1 / sliced_threads=0 / nr=0 / decimate=1 / interlaced=0 / bluray_compat=0 / constrained_intra=0 / bframes=6 / b_pyramid=2 / b_adapt=0 / b_bias=0 / direct=3 / weightb=1 / open_gop=0 / weightp=0 / keyint=7 / keyint_min=4 / scenecut=40 / intra_refresh=0 / rc_lookahead=28 / rc=cbr / mbtree=1 / bitrate=2500 / ratetol=1.0 / qcomp=0.60 / qpmin=0 / qpmax=69 / qpstep=4 / vbv_maxrate=2500 / vbv_bufsize=3000 / nal_hrd=vbr / filler=0 / ip_ratio=1.40 / aq=1:1.00
Language : English
Default : Yes
Forced : No
DURATION : 02:03:49.000000000
NUMBER_OF_FRAMES : 178296
NUMBER_OF_BYTES : 2314737104
_STATISTICS_WRITING_APP : mkvmerge v8.2.0 ('World of Adventure') 64bit
_STATISTICS_WRITING_DATE_UTC : 2015-10-15 07:16:56
_STATISTICS_TAGS : BPS DURATION NUMBER_OF_FRAMES NUMBER_OF_BYTES

Audio
ID : 2
Format : MPEG Audio
Format version : Version 1
Format profile : Layer 3
Mode : Joint stereo
Codec ID : A_MPEG/L3
Codec ID/Hint : MP3
Duration : 2h 3mn
Bit rate mode : Constant
Bit rate : 128 Kbps
Channel(s) : 2 channels
Sampling rate : 44.1 KHz
Compression mode : Lossy
Stream size : 113 MiB (5%)
Language : Russian
Default : Yes
Forced : No
DURATION : 02:03:49.172000000
NUMBER_OF_FRAMES : 284398
NUMBER_OF_BYTES : 118866755
_STATISTICS_WRITING_APP : mkvmerge v8.2.0 ('World of Adventure') 64bit
_STATISTICS_WRITING_DATE_UTC : 2015-10-15 07:16:56
_STATISTICS_TAGS : BPS DURATION NUMBER_OF_FRAMES NUMBER_OF_BYTES


pic


Информация
Информация Скриншоты Пиры Скачавшие Список файлов
Залил Оценка Просмотров Скачан Файлов
АРХАНГЕЛ +1 450331

Теги
фантастика, драма, комедия

Похожие раздачи

Поиск не дал результатов.Больше похожих раздач →

Список комментариев
Комментарии отсутствуют

Добавить комментарий
Внимание
Гости не могут оставлять комментарии, авторизуйтесь.

Панель навигации

ПОПУЛЯРНЫЕ РАЗДАЧИ
скачать торрент Ледокол (2016) WEB-DLRip | iTunesскачать торрент Доктор Стрэндж (2016) TS
скачать торрент Ледокол (2016) WEB-DL 1080p | iTunesскачать торрент Дуэлянт (2016) CAMRip
скачать торрент Отряд самоубийц (2016) BDRip 1080p | Расширeнная версия | iTunesскачать торрент Джейсон Борн (2016) HDTV 720p | Чистый звук
скачать торрент Первый мститель: Противостояние (2016) BDRip | IMAX Edition | iTunesскачать торрент Тарзан. Легенда (2016) HDRip | iTunes
скачать торрент Dark Souls 3: Deluxe Edition (2016) PC | RePack от xatabскачать торрент Люди Икс: Апокалипсис / X-Men: Apocalypse (2016) BDRip 720p | Лицензия

Будь с нами!


Наши друзья 



Информация, расположенная на данном сервере, предназначена исключительно для частного использования и не может быть загружена/перенесена на другой компьютер. Ни владелец сайта, ни хостинг-провайдер, ни любые другие физические или юридические лица не могут нести никакой отвественностиза любое использование материалов данного сайта.

© 2012-2016 TRACK.KG.