Загрузить Adobe Flash Player
Как тут качать? :: Как встать на раздачу?

Скачать / Download torrent  
Хэш: 0fd724f4cc0f75570f26cc26607463b5c9f49cab
Добавлен: 15 октября 2015 в 12:32:18
Категория: Фильмы » Зарубежное кино » Ужасы
Размер: 2.12 GB
Проверил: АРХАНГЕЛ 15 октября 2015 в 12:32:18

Раздают: 123 Качают: 44

Рождественские страшилки / A Christmas Horror Story (2015) WEB-DLRip-AVC | L2

pic

Название: Рождественские страшилки
Оригинальное название: A Christmas Horror Story

Год выхода: 2015
Страна: Канада / Copperheart Entertainment
Жанр: ужасы
Перевод: Любительский (двухголосый) den904 & DeadSno (перевод chup)

Режиссер: Грант Харви, Стивен Хобан
В ролях: Уилльям Шетнер, Джордж Бьюза, Роб Арчер, Зоэ де Гран Мэзон, Алекс Озеров, Шэннон Кук, Эми Форсайт, Джефф Кларк, Мишель Нолден, Эдриан Холмс, Олинке Аделийи, Орион Джон, Алан Си Питерсон, Перси Хьюнс Вайт, Корин Конели

О фильме: Старшеклассники расследуют загадочное убийство, произошедшее перед сезоном новогодних праздников, семейная пара замечает странное поведение младшего сына после совместной поездки в лес за ёлкой, а другую семью преследует рождественский демон Крампус, и всё это в то время, как на Северном полюсе Санта отбивается от зомби-эльфов.

pic pic pic pic pic pic
Качество: WEB-DLRip-AVC
Формат: MKV
Продолжительность: 01:39:27
Видео: AVC, 1024x560, 2500 Kbps
Звук: Russian: AC3, 2 ch, 192 Kbps, English: AC3, 6 ch, 384 Kbps
Субтитры: English

General
Unique ID : 215727173678236823913038551183729975086 (0xA24B8AD823295308ADCBA771B7E95F2E)
Complete name : D:\ДИСК\01.ФИЛЬМЫ\Рождественские страшилки A Christmas Horror Story (2015)\A.Christmas.Horror.Story.L2.2015.720p.WEB-DLRip-AVC.mkv
Format : Matroska
Format version : Version 4 / Version 2
File size : 2.12 GiB
Duration : 1h 39mn
Overall bit rate mode : Variable
Overall bit rate : 3 054 Kbps
Movie name : Release by ARHANGEL&vamo
Encoded date : UTC 2015-10-15 05:52:36
Writing application : mkvmerge v8.2.0 ('World of Adventure') 64bit
Writing library : Lavf56.25.101
ENCODING_INFO : MATROSKA,WEBM > MKV / H264 > X264 CBR 2500kbps Custom / AC3 > COPY / AC3 > COPY
DURATION : 01:33:35.640000000
NUMBER_OF_FRAMES : 1126
NUMBER_OF_BYTES : 28211
_STATISTICS_WRITING_APP : mkvmerge v8.2.0 ('World of Adventure') 64bit
_STATISTICS_WRITING_DATE_UTC : 2015-10-15 05:52:36
_STATISTICS_TAGS : BPS DURATION NUMBER_OF_FRAMES NUMBER_OF_BYTES

Video
ID : 1
Format : AVC
Format/Info : Advanced Video Codec
Format profile : High@L4.1
Format settings, CABAC : Yes
Format settings, ReFrames : 8 frames
Codec ID : V_MPEG4/ISO/AVC
Duration : 1h 39mn
Bit rate mode : Variable
Bit rate : 2 500 Kbps
Width : 1 024 pixels
Height : 560 pixels
Display aspect ratio : 1.85:1
Frame rate mode : Constant
Frame rate : 23.976 fps
Color space : YUV
Chroma subsampling : 4:2:0
Bit depth : 8 bits
Scan type : Progressive
Bits/(Pixel*Frame) : 0.182
Stream size : 1.68 GiB (79%)
Writing library : x264 core 148 r2597M e86f3a1
Encoding settings : cabac=1 / ref=8 / deblock=1:-3:-3 / analyse=0x3:0x133 / me=umh / subme=8 / psy=1 / psy_rd=1.00:0.15 / mixed_ref=1 / me_range=16 / chroma_me=1 / trellis=2 / 8x8dct=1 / cqm=0 / deadzone=21,11 / fast_pskip=1 / chroma_qp_offset=-3 / threads=8 / lookahead_threads=1 / sliced_threads=0 / nr=0 / decimate=1 / interlaced=0 / bluray_compat=0 / constrained_intra=0 / bframes=6 / b_pyramid=2 / b_adapt=0 / b_bias=0 / direct=3 / weightb=1 / open_gop=0 / weightp=0 / keyint=7 / keyint_min=4 / scenecut=40 / intra_refresh=0 / rc_lookahead=28 / rc=cbr / mbtree=1 / bitrate=2500 / ratetol=1.0 / qcomp=0.60 / qpmin=0 / qpmax=69 / qpstep=4 / vbv_maxrate=2500 / vbv_bufsize=3000 / nal_hrd=vbr / filler=0 / ip_ratio=1.40 / aq=1:1.00
Language : English
Default : Yes
Forced : No
Color range : Limited
Color primaries : BT.709
Transfer characteristics : BT.709
Matrix coefficients : BT.709
DURATION : 01:39:27.045000000
NUMBER_OF_FRAMES : 143066
NUMBER_OF_BYTES : 1843538364
_STATISTICS_WRITING_APP : mkvmerge v8.2.0 ('World of Adventure') 64bit
_STATISTICS_WRITING_DATE_UTC : 2015-10-15 05:52:36
_STATISTICS_TAGS : BPS DURATION NUMBER_OF_FRAMES NUMBER_OF_BYTES

Audio #1
ID : 2
Format : AC-3
Format/Info : Audio Coding 3
Mode extension : CM (complete main)
Format settings, Endianness : Big
Codec ID : A_AC3
Duration : 1h 39mn
Bit rate mode : Constant
Bit rate : 192 Kbps
Channel(s) : 2 channels
Channel positions : Front: L R
Sampling rate : 48.0 KHz
Compression mode : Lossy
Stream size : 137 MiB (6%)
Title : den904 & DeadSno
Language : Russian
Default : Yes
Forced : No
DURATION : 01:39:26.528000000
NUMBER_OF_FRAMES : 186454
NUMBER_OF_BYTES : 143196672
_STATISTICS_WRITING_APP : mkvmerge v8.2.0 ('World of Adventure') 64bit
_STATISTICS_WRITING_DATE_UTC : 2015-10-15 05:52:36
_STATISTICS_TAGS : BPS DURATION NUMBER_OF_FRAMES NUMBER_OF_BYTES

Audio #2
ID : 3
Format : AC-3
Format/Info : Audio Coding 3
Mode extension : CM (complete main)
Format settings, Endianness : Big
Codec ID : A_AC3
Duration : 1h 39mn
Bit rate mode : Constant
Bit rate : 384 Kbps
Channel(s) : 6 channels
Channel positions : Front: L C R, Side: L R, LFE
Sampling rate : 48.0 KHz
Compression mode : Lossy
Stream size : 273 MiB (13%)
Title : Original
Language : English
Default : No
Forced : No
DURATION : 01:39:27.040000000
NUMBER_OF_FRAMES : 186470
NUMBER_OF_BYTES : 286417920
_STATISTICS_WRITING_APP : mkvmerge v8.2.0 ('World of Adventure') 64bit
_STATISTICS_WRITING_DATE_UTC : 2015-10-15 05:52:36
_STATISTICS_TAGS : BPS DURATION NUMBER_OF_FRAMES NUMBER_OF_BYTES

Text
ID : 4
Format : UTF-8
Codec ID : S_TEXT/UTF8
Codec ID/Info : UTF-8 Plain Text
Language : English
Default : Yes
Forced : No


pic


Информация
Информация Скриншоты Пиры Скачавшие Список файлов
Залил Оценка Просмотров Скачан Файлов
АРХАНГЕЛ 0 425191

Теги
ужасы

Похожие раздачи

Поиск не дал результатов.Больше похожих раздач →

Список комментариев
Комментарии отсутствуют

Добавить комментарий
Внимание
Гости не могут оставлять комментарии, авторизуйтесь.

Панель навигации

ПОПУЛЯРНЫЕ РАЗДАЧИ
скачать торрент Ледокол (2016) WEB-DLRip | iTunesскачать торрент Доктор Стрэндж (2016) TS
скачать торрент Ледокол (2016) WEB-DL 1080p | iTunesскачать торрент Дуэлянт (2016) CAMRip
скачать торрент Отряд самоубийц (2016) BDRip 1080p | Расширeнная версия | iTunesскачать торрент Джейсон Борн (2016) HDTV 720p | Чистый звук
скачать торрент Первый мститель: Противостояние (2016) BDRip | IMAX Edition | iTunesскачать торрент Тарзан. Легенда (2016) HDRip | iTunes
скачать торрент Dark Souls 3: Deluxe Edition (2016) PC | RePack от xatabскачать торрент Люди Икс: Апокалипсис / X-Men: Apocalypse (2016) BDRip 720p | Лицензия

Будь с нами!


Наши друзья 



Информация, расположенная на данном сервере, предназначена исключительно для частного использования и не может быть загружена/перенесена на другой компьютер. Ни владелец сайта, ни хостинг-провайдер, ни любые другие физические или юридические лица не могут нести никакой отвественностиза любое использование материалов данного сайта.

© 2012-2016 TRACK.KG.