Загрузить Adobe Flash Player
Как тут качать? :: Как встать на раздачу?

Скачать / Download torrent  
Хэш: f489ebebc371799dce01fddd38b4df6b50e90a18
Добавлен: 11 октября 2015 в 17:56:58
Категория: Мультфильмы
Размер: 1.32 GB
Проверил: АРХАНГЕЛ 11 октября 2015 в 17:56:58

Раздают: 18 Качают: 4

Любопытный Джордж 3 / Curious George 3: Back to the Jungle (2015) HDRip-AVC | Чистый звук

pic

Название: Любопытный Джордж 3
Оригинальное название: Curious George 3: Back to the Jungle

Год выхода: 2015
Страна: США / Imagine Entertainment, Universal 1440 Entertainment, WGBH Boston
Жанр: мультфильм, семейный
Перевод: Дублированное Чистый звук

Режиссер: Фил Вайнштейн
В ролях: Анджела Бассетт, Джефф Беннетт, Джон Гудман, Александр Полински, Фрэнк Уэлкер

О фильме: Полнометражный мультфильм, созданный по мотивам книги Ханса Аугусто Рея и Маргрет Рей, о приключениях маленькой, очень умной и очень любопытной обезьянки по имени Джордж, которая никогда не сидит на месте. Когда-то сотрудник музея древностей по имени Тед отправился в южноафриканские джунгли на поиски магического артефакта, встретил там Джорджа, и с тех пор человек и обезьянка стали неразлучными друзьями. В один прекрасный день в музей, где работает Тед, приходят представители Всемирного Космического Агентства. Они предлагают Джорджу совершить полет в космос с благородной целью – он должен спасти свою родину, джунгли.

pic pic pic pic
Качество: HDRip-AVC
Формат: MKV
Продолжительность: 01:20:30
Видео: AVC, 1024x576, 2150 Kbps
Звук: AC3, 2 ch, 192 Kbps
Субтитры: Английские

General
Unique ID : 174868003983527242495327216287254836791 (0x838E5A3EAA8B5917BB63E77BEB27F637)
Complete name : D:\ДИСК\04.МУЛЬТФИЛЬМЫ\Любопытный Джордж 3 Curious George 3 Back to the Jungle (2015)\Curious.George-3.2015.D.HDRip.(AVC).mkv
Format : Matroska
Format version : Version 4 / Version 2
File size : 1.32 GiB
Duration : 1h 20mn
Overall bit rate : 2 348 Kbps
Encoded date : UTC 2015-08-22 20:13:50
Writing application : mkvmerge v8.1.0 ('Psychedelic Postcard') 32bit
Writing library : Lavf56.22.100
DURATION : 01:15:39.440000000
NUMBER_OF_FRAMES : 1466
NUMBER_OF_BYTES : 2455467
_STATISTICS_WRITING_APP : mkvmerge v8.1.0 ('Psychedelic Postcard') 32bit
_STATISTICS_WRITING_DATE_UTC : 2015-10-01 17:06:55
_STATISTICS_TAGS : BPS DURATION NUMBER_OF_FRAMES NUMBER_OF_BYTES

Video
ID : 1
Format : AVC
Format/Info : Advanced Video Codec
Format profile : High@L4.1
Format settings, CABAC : Yes
Format settings, ReFrames : 7 frames
Codec ID : V_MPEG4/ISO/AVC
Duration : 1h 20mn
Bit rate : 2 150 Kbps
Width : 1 024 pixels
Height : 576 pixels
Display aspect ratio : 16:9
Frame rate mode : Constant
Frame rate : 23.976 fps
Standard : Component
Color space : YUV
Chroma subsampling : 4:2:0
Bit depth : 8 bits
Scan type : Progressive
Bits/(Pixel*Frame) : 0.152
Stream size : 1.19 GiB (90%)
Writing library : x264 core 144 r2525
Encoding settings : cabac=1 / ref=7 / deblock=1:0:0 / analyse=0x3:0x102 / me=umh / subme=7 / psy=1 / psy_rd=1.00:1.00 / mixed_ref=0 / me_range=16 / chroma_me=1 / trellis=1 / 8x8dct=1 / cqm=0 / deadzone=21,21 / fast_pskip=1 / chroma_qp_offset=-4 / threads=6 / lookahead_threads=1 / sliced_threads=0 / nr=0 / decimate=1 / interlaced=0 / bluray_compat=0 / constrained_intra=0 / bframes=7 / b_pyramid=0 / b_adapt=1 / b_bias=7 / direct=3 / weightb=1 / open_gop=1 / weightp=2 / keyint=239 / keyint_min=23 / scenecut=40 / intra_refresh=0 / rc_lookahead=30 / rc=2pass / mbtree=1 / bitrate=2150 / ratetol=1.0 / qcomp=0.60 / qpmin=8 / qpmax=69 / qpstep=9 / cplxblur=20.0 / qblur=0.5 / ip_ratio=1.40 / aq=1:1.00
Default : Yes
Forced : No
Color range : Limited
DURATION : 01:20:30.242000000
NUMBER_OF_FRAMES : 115810
NUMBER_OF_BYTES : 1298120822
_STATISTICS_WRITING_APP : mkvmerge v8.1.0 ('Psychedelic Postcard') 32bit
_STATISTICS_WRITING_DATE_UTC : 2015-10-01 17:06:55
_STATISTICS_TAGS : BPS DURATION NUMBER_OF_FRAMES NUMBER_OF_BYTES

Audio
ID : 2
Format : AC-3
Format/Info : Audio Coding 3
Mode extension : CM (complete main)
Format settings, Endianness : Big
Codec ID : A_AC3
Duration : 1h 20mn
Bit rate mode : Constant
Bit rate : 192 Kbps
Channel(s) : 2 channels
Channel positions : Front: L R
Sampling rate : 48.0 KHz
Compression mode : Lossy
Delay relative to video : -42ms
Stream size : 111 MiB (8%)
Language : Russian
Default : Yes
Forced : No

Text
ID : 3
Format : VobSub
Muxing mode : zlib
Codec ID : S_VOBSUB
Codec ID/Info : Picture based subtitle format used on DVDs
Language : English
Default : No
Forced : No

Menu
00:00:00.000 : en:00:00:00.000
00:05:28.954 : en:00:05:28.954
00:08:19.457 : en:00:08:19.457
00:12:02.180 : en:00:12:02.180
00:15:52.034 : en:00:15:52.034
00:20:13.838 : en:00:20:13.838
00:24:32.930 : en:00:24:32.930
00:28:17.487 : en:00:28:17.487
00:31:42.317 : en:00:31:42.317
00:35:16.906 : en:00:35:16.906
00:40:31.012 : en:00:40:31.012
00:44:17.613 : en:00:44:17.613
00:47:12.955 : en:00:47:12.955
00:51:52.735 : en:00:51:52.735
00:56:01.775 : en:00:56:01.775
01:01:33.565 : en:01:01:33.565
01:05:30.051 : en:01:05:30.051
01:11:35.958 : en:01:11:35.958
01:14:44.188 : en:01:14:44.188
01:16:13.319 : en:01:16:13.319


pic


Информация
Информация Скриншоты Пиры Скачавшие Список файлов
Залил Оценка Просмотров Скачан Файлов
АРХАНГЕЛ 0 229101

Теги
мультфильм, семейный

Похожие раздачи

Поиск не дал результатов.Больше похожих раздач →

Список комментариев
Комментарии отсутствуют

Добавить комментарий
Внимание
Гости не могут оставлять комментарии, авторизуйтесь.

Панель навигации

ПОПУЛЯРНЫЕ РАЗДАЧИ
скачать торрент Ледокол (2016) WEB-DLRip | iTunesскачать торрент Доктор Стрэндж (2016) TS
скачать торрент Ледокол (2016) WEB-DL 1080p | iTunesскачать торрент Дуэлянт (2016) CAMRip
скачать торрент Отряд самоубийц (2016) BDRip 1080p | Расширeнная версия | iTunesскачать торрент Джейсон Борн (2016) HDTV 720p | Чистый звук
скачать торрент Первый мститель: Противостояние (2016) BDRip | IMAX Edition | iTunesскачать торрент Тарзан. Легенда (2016) HDRip | iTunes
скачать торрент Dark Souls 3: Deluxe Edition (2016) PC | RePack от xatabскачать торрент Люди Икс: Апокалипсис / X-Men: Apocalypse (2016) BDRip 720p | Лицензия

Будь с нами!


Наши друзья 



Информация, расположенная на данном сервере, предназначена исключительно для частного использования и не может быть загружена/перенесена на другой компьютер. Ни владелец сайта, ни хостинг-провайдер, ни любые другие физические или юридические лица не могут нести никакой отвественностиза любое использование материалов данного сайта.

© 2012-2016 TRACK.KG.