Загрузить Adobe Flash Player
Как тут качать? :: Как встать на раздачу?

Скачать / Download torrent  
Хэш: a25a021e709e1f04e45db5e24dbcd0b8b21851fb
Добавлен: 9 октября 2015 в 16:29:54
Категория: Фильмы » Зарубежное кино » Триллеры / Криминал
Размер: 2.01 GB
Проверил: АРХАНГЕЛ 9 октября 2015 в 16:29:54

Раздают: 111 Качают: 33

Ботинки мертвеца / Dead Man's Shoes (2004) HDRip-AVC | P

pic

«Он есть в каждом из нас!»

Название: Ботинки мертвеца
Оригинальное название: Dead Man's Shoes

Год выхода: 2004
Страна: Великобритания / Big Arty Productions, EM Media, Film4, Warp Films
Жанр: триллер, драма, криминал
Перевод: Профессиональный (многоголосый, закадровый)

Режиссер: Шейн Мидоуз
В ролях: Пэдди Консидайн, Гари Стретч, Тоби Кеббелл, Джо Хартли, Симус О`Нейлл, Пол Хурстфилд, Эмили Эстон, Джордж Ньютон

О фильме: Ричард, молодой человек из маленького городка Дербишир, служил 8 лет в армии. В это время, его умственно отсталый брат Антоний попадает под влияние местной шпаны. Ричард возвращается домой, чтобы воссоединиться с братом и разобраться с обидчиками. Погружаясь в бездну мести, он придумывает изощренные методы расправы, не сулящие никому легкой смерти.

pic pic pic pic
Качество: HDRip-AVC
Формат: MKV
Продолжительность: 01:26:15
Видео: AVC, 1024x576, 2376 Kbps
Звук: Русский, английский: AC3, 6 ch, 448 Kbps
Субтитры: Английские


General
Unique ID : 230186007372714331924690169902555640406 (0xAD2C366252F195EBB5CC8F75944EB256)
Complete name : D:\ДИСК\01.ФИЛЬМЫ\Ботинки мертвеца Dead Man's Shoes (2004)\Dead.Mans.Shoes.2004.HDRip-AVC.mkv
Format : Matroska
Format version : Version 4 / Version 2
File size : 2.01 GiB
Duration : 1h 26mn
Overall bit rate : 3 335 Kbps
Movie name : Release by ARHANGEL&vamo
Encoded date : UTC 2009-09-23 09:59:05
Writing application : mkvmerge v8.2.0 ('World of Adventure') 64bit
Writing library : XviD4PSP 6.0 / 54.29.105
DURATION : 01:25:33.400000000
NUMBER_OF_FRAMES : 1284
NUMBER_OF_BYTES : 34317
_STATISTICS_WRITING_APP : mkvmerge v8.2.0 ('World of Adventure') 64bit
_STATISTICS_WRITING_DATE_UTC : 2015-10-09 10:02:38
_STATISTICS_TAGS : BPS DURATION NUMBER_OF_FRAMES NUMBER_OF_BYTES

Video
ID : 1
Format : AVC
Format/Info : Advanced Video Codec
Format profile : High@L4.1
Format settings, CABAC : Yes
Format settings, ReFrames : 7 frames
Codec ID : V_MPEG4/ISO/AVC
Duration : 1h 26mn
Bit rate : 2 373 Kbps
Nominal bit rate : 2 500 Kbps
Width : 1 024 pixels
Height : 576 pixels
Display aspect ratio : 16:9
Original display aspect ratio : 16:9
Frame rate mode : Constant
Frame rate : 25.000 fps
Color space : YUV
Chroma subsampling : 4:2:0
Bit depth : 8 bits
Scan type : Progressive
Bits/(Pixel*Frame) : 0.161
Stream size : 1.43 GiB (71%)
Writing library : x264 core 128 r2216M 198a7ea
Encoding settings : cabac=1 / ref=8 / deblock=1:-3:-3 / analyse=0x3:0x133 / me=umh / subme=8 / psy=1 / psy_rd=1.00:0.20 / mixed_ref=1 / me_range=16 / chroma_me=1 / trellis=2 / 8x8dct=1 / cqm=0 / deadzone=21,11 / fast_pskip=1 / chroma_qp_offset=-3 / threads=8 / lookahead_threads=1 / sliced_threads=0 / nr=0 / decimate=1 / interlaced=0 / bluray_compat=0 / constrained_intra=0 / bframes=8 / b_pyramid=1 / b_adapt=2 / b_bias=0 / direct=3 / weightb=1 / open_gop=0 / weightp=2 / keyint=250 / keyint_min=25 / scenecut=40 / intra_refresh=0 / rc_lookahead=40 / rc=abr / mbtree=1 / bitrate=2500 / ratetol=1.0 / qcomp=0.60 / qpmin=0 / qpmax=69 / qpstep=4 / ip_ratio=1.40 / aq=1:1.00
Language : English
Default : Yes
Forced : No
DURATION : 01:26:15.920000000
NUMBER_OF_FRAMES : 129398
NUMBER_OF_BYTES : 1578481763
_STATISTICS_WRITING_APP : mkvmerge v8.2.0 ('World of Adventure') 64bit
_STATISTICS_WRITING_DATE_UTC : 2015-10-09 10:02:38
_STATISTICS_TAGS : BPS DURATION NUMBER_OF_FRAMES NUMBER_OF_BYTES

Audio #1
ID : 2
Format : AC-3
Format/Info : Audio Coding 3
Mode extension : CM (complete main)
Format settings, Endianness : Big
Codec ID : A_AC3
Duration : 1h 26mn
Bit rate mode : Constant
Bit rate : 448 Kbps
Channel(s) : 6 channels
Channel positions : Front: L C R, Side: L R, LFE
Sampling rate : 48.0 KHz
Compression mode : Lossy
Stream size : 277 MiB (13%)
Title : MVO
Language : Russian
Default : Yes
Forced : No
DURATION : 01:26:21.056000000
NUMBER_OF_FRAMES : 161908
NUMBER_OF_BYTES : 290139136
_STATISTICS_WRITING_APP : mkvmerge v8.2.0 ('World of Adventure') 64bit
_STATISTICS_WRITING_DATE_UTC : 2015-10-09 10:02:38
_STATISTICS_TAGS : BPS DURATION NUMBER_OF_FRAMES NUMBER_OF_BYTES

Audio #2
ID : 3
Format : AC-3
Format/Info : Audio Coding 3
Mode extension : CM (complete main)
Format settings, Endianness : Big
Codec ID : A_AC3
Duration : 1h 26mn
Bit rate mode : Constant
Bit rate : 448 Kbps
Channel(s) : 6 channels
Channel positions : Front: L C R, Side: L R, LFE
Sampling rate : 48.0 KHz
Compression mode : Lossy
Delay relative to video : 27ms
Stream size : 277 MiB (13%)
Title : Original
Language : English
Default : No
Forced : No
DURATION : 01:26:21.056000000
NUMBER_OF_FRAMES : 161908
NUMBER_OF_BYTES : 290139136
_STATISTICS_WRITING_APP : mkvmerge v8.2.0 ('World of Adventure') 64bit
_STATISTICS_WRITING_DATE_UTC : 2015-10-09 10:02:38
_STATISTICS_TAGS : BPS DURATION NUMBER_OF_FRAMES NUMBER_OF_BYTES

Text
ID : 4
Format : UTF-8
Codec ID : S_TEXT/UTF8
Codec ID/Info : UTF-8 Plain Text
Language : English
Default : Yes
Forced : No


pic


Информация
Информация Скриншоты Пиры Скачавшие Список файлов
Залил Оценка Просмотров Скачан Файлов
АРХАНГЕЛ 0 251151

Теги
триллер, драма, криминал

Похожие раздачи

Поиск не дал результатов.Больше похожих раздач →

Список комментариев
Комментарии отсутствуют

Добавить комментарий
Внимание
Гости не могут оставлять комментарии, авторизуйтесь.

Панель навигации

ПОПУЛЯРНЫЕ РАЗДАЧИ
скачать торрент Ледокол (2016) WEB-DLRip | iTunesскачать торрент Доктор Стрэндж (2016) TS
скачать торрент Ледокол (2016) WEB-DL 1080p | iTunesскачать торрент Дуэлянт (2016) CAMRip
скачать торрент Отряд самоубийц (2016) BDRip 1080p | Расширeнная версия | iTunesскачать торрент Джейсон Борн (2016) HDTV 720p | Чистый звук
скачать торрент Первый мститель: Противостояние (2016) BDRip | IMAX Edition | iTunesскачать торрент Тарзан. Легенда (2016) HDRip | iTunes
скачать торрент Dark Souls 3: Deluxe Edition (2016) PC | RePack от xatabскачать торрент Люди Икс: Апокалипсис / X-Men: Apocalypse (2016) BDRip 720p | Лицензия

Будь с нами!


Наши друзья 



Информация, расположенная на данном сервере, предназначена исключительно для частного использования и не может быть загружена/перенесена на другой компьютер. Ни владелец сайта, ни хостинг-провайдер, ни любые другие физические или юридические лица не могут нести никакой отвественностиза любое использование материалов данного сайта.

© 2012-2016 TRACK.KG.