Загрузить Adobe Flash Player
Как тут качать? :: Как встать на раздачу?

Скачать / Download torrent  
Хэш: 95733b607e576d9e1da0d1d53c23b8253510ad78
Добавлен: 9 октября 2015 в 13:54:45
Категория: Фильмы » Российские фильмы
Размер: 1.88 GB
Проверил: АРХАНГЕЛ 9 октября 2015 в 13:54:45

Раздают: 18 Качают: 44

Клетка (2015) WEB-DL-AVC | iTunes

pic

Название: Клетка

Год выхода: 2015
Страна: Россия / МосфильМ, Кинокомпания «Фортуна Фильм», «Центр Юпитер ФМ»
Жанр: драма, триллер
Перевод: Оригинальное iTunes

Режиссер: Элла Архангельская
В ролях: Даниил Спиваковский, Елена Радевич, Михаил Горевой, Дмитрий Нагиев, Евгений Кулаков, Ирина Рахманова, Ёла Санько, Дмитрий Проданов, Александр Кабанов, Анвар Либабов

О фильме: Ростовщик женится на бедной юной девушке, чтобы потешить свое тщеславие и начать новую жизнь. Кроткая и Неизвестный — их союз начисто лишен любви и счастья. Казалось бы, обычная бытовая история, но между супругами вспыхивает настоящая психологическая война, которая разрушает обоих и приводит к страшным последствиям. Неизвестный в буквальном смысле заточает жену в клетку, но в итоге сам оказывается её пленником.

pic pic pic pic
Качество: WEB-DL-AVC
Формат: MKV
Продолжительность: 01:42:26
Видео: AVC, 1024x576, 2196 Kbps
Звук: AC3, 6 ch, 384 Kbps

General
Unique ID : 87855831106184853977062002306648940720 (0x42186AE74931549B8B785AF51ED4A0B0)
Complete name : D:\ДИСК\02.ФИЛЬМЫ СНГ\Клетка (2015)\Клетка (2015) WEB-DL-AVC.mkv
Format : Matroska
Format version : Version 4 / Version 2
File size : 1.88 GiB
Duration : 1h 42mn
Overall bit rate : 2 632 Kbps
Writing application : XviD4PSP 7.0.176
Writing library : Lavf56.25.101
ENCODING_INFO : MATROSKA,WEBM > MKV / H264 > X264 CBR 2500kbps Custom / AC3 > COPY

Video
ID : 1
Format : AVC
Format/Info : Advanced Video Codec
Format profile : High@L4.1
Format settings, CABAC : Yes
Format settings, ReFrames : 8 frames
Codec ID : V_MPEG4/ISO/AVC
Duration : 1h 42mn
Bit rate : 2 196 Kbps
Nominal bit rate : 2 500 Kbps
Width : 1 024 pixels
Height : 576 pixels
Display aspect ratio : 16:9
Frame rate mode : Constant
Frame rate : 25.000 fps
Color space : YUV
Chroma subsampling : 4:2:0
Bit depth : 8 bits
Scan type : Progressive
Bits/(Pixel*Frame) : 0.149
Stream size : 1.57 GiB (83%)
Writing library : x264 core 148 r2597M e86f3a1
Encoding settings : cabac=1 / ref=8 / deblock=1:-1:-1 / analyse=0x3:0x133 / me=umh / subme=8 / psy=1 / psy_rd=1.00:0.00 / mixed_ref=1 / me_range=16 / chroma_me=1 / trellis=2 / 8x8dct=1 / cqm=0 / deadzone=21,11 / fast_pskip=1 / chroma_qp_offset=-2 / threads=5 / lookahead_threads=1 / sliced_threads=0 / nr=0 / decimate=1 / interlaced=0 / bluray_compat=0 / constrained_intra=0 / bframes=8 / b_pyramid=2 / b_adapt=0 / b_bias=0 / direct=3 / weightb=1 / open_gop=0 / weightp=0 / keyint=250 / keyint_min=25 / scenecut=40 / intra_refresh=0 / rc_lookahead=40 / rc=cbr / mbtree=1 / bitrate=2500 / ratetol=1.0 / qcomp=0.60 / qpmin=0 / qpmax=69 / qpstep=4 / vbv_maxrate=2500 / vbv_bufsize=2500 / nal_hrd=none / filler=0 / ip_ratio=1.40 / aq=1:1.00
Language : English
Default : Yes
Forced : No
Color range : Limited
Color primaries : BT.709
Transfer characteristics : BT.709
Matrix coefficients : BT.709

Audio
ID : 2
Format : AC-3
Format/Info : Audio Coding 3
Mode extension : CM (complete main)
Format settings, Endianness : Big
Codec ID : A_AC3
Duration : 1h 42mn
Bit rate mode : Constant
Bit rate : 384 Kbps
Channel(s) : 6 channels
Channel positions : Front: L C R, Side: L R, LFE
Sampling rate : 48.0 KHz
Bit depth : 32 bits
Compression mode : Lossy
Stream size : 281 MiB (15%)
Language : Russian
Default : Yes
Forced : No


pic


Информация
Информация Скриншоты Пиры Скачавшие Список файлов
Залил Оценка Просмотров Скачан Файлов
АРХАНГЕЛ 0 288171

Теги
драма, триллер

Похожие раздачи

Золотая клетка / La jaula de oro (2013) BDRip 1080p 7.78 GB

Золотая клетка / La jaula de oro (2013) НDRip | L1 1.46 GB

Больше похожих раздач →

Список комментариев
Комментарии отсутствуют

Добавить комментарий
Внимание
Гости не могут оставлять комментарии, авторизуйтесь.

Панель навигации

ПОПУЛЯРНЫЕ РАЗДАЧИ
скачать торрент Ледокол (2016) WEB-DLRip | iTunesскачать торрент Ледокол (2016) WEB-DL 1080p | iTunes
скачать торрент Дуэлянт (2016) CAMRipскачать торрент Отряд самоубийц (2016) BDRip 1080p | Расширeнная версия | iTunes
скачать торрент Джейсон Борн (2016) HDTV 720p | Чистый звукскачать торрент Первый мститель: Противостояние (2016) BDRip | IMAX Edition | iTunes
скачать торрент Тарзан. Легенда (2016) HDRip | iTunesскачать торрент Dark Souls 3: Deluxe Edition (2016) PC | RePack от xatab
скачать торрент Люди Икс: Апокалипсис / X-Men: Apocalypse (2016) BDRip 720p | Лицензияскачать торрент Полтора шпиона (2016) BDRip 1080p | Лицензия

Будь с нами!


Наши друзья 



Информация, расположенная на данном сервере, предназначена исключительно для частного использования и не может быть загружена/перенесена на другой компьютер. Ни владелец сайта, ни хостинг-провайдер, ни любые другие физические или юридические лица не могут нести никакой отвественностиза любое использование материалов данного сайта.

© 2012-2016 TRACK.KG.