Загрузить Adobe Flash Player
Как тут качать? :: Как встать на раздачу?

Скачать / Download torrent  
Хэш: 6dba761141eb3b44ce22990673dc6f009fb337ca
Добавлен: 6 октября 2015 в 21:21:27
Категория: Мультфильмы
Размер: 1.67 GB
Проверил: АРХАНГЕЛ 6 октября 2015 в 21:21:27

Раздают: 72 Качают: 10

Апостол / O Apóstolo (2012) WEB-DLRip-AVC | D

pic

Название: Апостол
Оригинальное название: O Apоstolo

Год выхода: 2012
Страна: Испания / Artefacto producciones ,Audiovisual Aval SGR ,EFG-Renascence Productions...
Жанр: мультфильм, ужасы
Перевод: Дублированный Официальный звук

Режиссер: Фернандо Кортисо
В ролях: Карлос Бланко, Хосе Мануэль Ольвейра «Пико», Пол Нэши, Хорхе Санс, Сельсо Бугальо, Джеральдин Чаплин, Мануэль Манкинья, Луис Тосар, Педро Алонсо, Изабель Бланко

О фильме: Преступник, сбежавший из тюрьмы, добирается до отдаленной деревни, чтобы забрать награбленное добро. Однако, то, что он находит, сулит ему несчастья намного более серьезные, чем те, которые он пережил.

pic pic pic pic
Качество: WEB-DLRip-AVC
Формат: MKV
Продолжительность: 01:21:07
Видео: AVC, 1024x544, 2500 Kbps
Звук: AC3, 2 ch, 448 Kbps

General
Unique ID : 27846048117196658616149872901140210217 (0x14F2F42B97CBD0A6A9AD7AEA55CB6229)
Complete name : D:\ДИСК\04.МУЛЬТФИЛЬМЫ\Апостол O Apоstolo (2012)\Ap0st0l.2012.D.WEBDLRip-AVC.mkv
Format : Matroska
Format version : Version 2
File size : 1.67 GiB
Duration : 1h 21mn
Overall bit rate : 2 945 Kbps
Writing application : XviD4PSP 6.0 / 54.29.105
Writing library : XviD4PSP 6.0 / 54.29.105

Video
ID : 1
Format : AVC
Format/Info : Advanced Video Codec
Format profile : High@L4.1
Format settings, CABAC : Yes
Format settings, ReFrames : 7 frames
Codec ID : V_MPEG4/ISO/AVC
Duration : 1h 21mn
Bit rate : 2 500 Kbps
Width : 1 024 pixels
Height : 544 pixels
Display aspect ratio : 1.85:1
Original display aspect ratio : 1.85:1
Frame rate mode : Constant
Frame rate : 25.000 fps
Color space : YUV
Chroma subsampling : 4:2:0
Bit depth : 8 bits
Scan type : Progressive
Bits/(Pixel*Frame) : 0.180
Stream size : 1.38 GiB (83%)
Writing library : x264 core 128 r2216M 198a7ea
Encoding settings : cabac=1 / ref=8 / deblock=1:-3:-3 / analyse=0x3:0x133 / me=umh / subme=8 / psy=1 / psy_rd=1.00:0.20 / mixed_ref=1 / me_range=24 / chroma_me=1 / trellis=2 / 8x8dct=1 / cqm=0 / deadzone=21,11 / fast_pskip=1 / chroma_qp_offset=-3 / threads=8 / lookahead_threads=1 / sliced_threads=0 / nr=0 / decimate=1 / interlaced=0 / bluray_compat=0 / constrained_intra=0 / bframes=8 / b_pyramid=1 / b_adapt=2 / b_bias=0 / direct=3 / weightb=1 / open_gop=0 / weightp=2 / keyint=250 / keyint_min=25 / scenecut=40 / intra_refresh=0 / rc_lookahead=40 / rc=abr / mbtree=1 / bitrate=2500 / ratetol=1.0 / qcomp=0.60 / qpmin=0 / qpmax=69 / qpstep=4 / ip_ratio=1.40 / aq=1:1.00
Default : Yes
Forced : No

Audio
ID : 2
Format : AC-3
Format/Info : Audio Coding 3
Mode extension : CM (complete main)
Format settings, Endianness : Big
Codec ID : A_AC3
Duration : 1h 21mn
Bit rate mode : Constant
Bit rate : 448 Kbps
Channel(s) : 2 channels
Channel positions : Front: L R
Sampling rate : 48.0 KHz
Bit depth : 16 bits
Compression mode : Lossy
Stream size : 260 MiB (15%)
Default : Yes
Forced : No


pic


Информация
Информация Скриншоты Пиры Скачавшие Список файлов
Залил Оценка Просмотров Скачан Файлов
АРХАНГЕЛ 0 274191

Теги
мультфильм, ужасы

Похожие раздачи

Тринадцатый апостол - Откровение / Il tredicesimo apostolo - La Rivelazione (2 сезон: 1-12 серия из 12) (2014) SATRip | ТВ3 7.81 GB

Библейские сказания / Апостол Павел: Чудо на пути в Дамаск / San Paolo (2000) DVDRip-AVC | P 3.07 GB

Библейские сказания. Апостол Павел: Чудо на пути в Дамаск / San Paolo (Роджер Янг / Roger Young) (2000) [Драма, Приключения, Био 2.92 GB

Больше похожих раздач →

Список комментариев
Комментарии отсутствуют

Добавить комментарий
Внимание
Гости не могут оставлять комментарии, авторизуйтесь.

Панель навигации

ПОПУЛЯРНЫЕ РАЗДАЧИ
скачать торрент Ледокол (2016) WEB-DLRip | iTunesскачать торрент Доктор Стрэндж (2016) TS
скачать торрент Ледокол (2016) WEB-DL 1080p | iTunesскачать торрент Дуэлянт (2016) CAMRip
скачать торрент Отряд самоубийц (2016) BDRip 1080p | Расширeнная версия | iTunesскачать торрент Джейсон Борн (2016) HDTV 720p | Чистый звук
скачать торрент Первый мститель: Противостояние (2016) BDRip | IMAX Edition | iTunesскачать торрент Тарзан. Легенда (2016) HDRip | iTunes
скачать торрент Полтора шпиона (2016) BDRip 1080p | Лицензияскачать торрент Джейсон Борн (2016) HDTV 1080p | Чистый звук

Будь с нами!


Наши друзья 



Информация, расположенная на данном сервере, предназначена исключительно для частного использования и не может быть загружена/перенесена на другой компьютер. Ни владелец сайта, ни хостинг-провайдер, ни любые другие физические или юридические лица не могут нести никакой отвественностиза любое использование материалов данного сайта.

© 2012-2016 TRACK.KG.