Загрузить Adobe Flash Player
Как тут качать? :: Как встать на раздачу?

Скачать / Download torrent  
Хэш: 4379e72b4289ef2fd67fa62f038b788877c0ecd4
Добавлен: 4 октября 2015 в 18:44:40
Категория: Мультфильмы
Размер: 2.08 GB
Проверил: АРХАНГЕЛ 4 октября 2015 в 18:44:40

Раздают: 278 Качают: 82

Тяжёлый металл 2000 / Heavy Metal 2000 / Heavy Metal: F.A.K.K. 2 (2000) DVDRip-AVC | P

pic

Название: Тяжёлый металл 2000
Оригинальное название: Heavy Metal 2000 / Heavy Metal: F.A.K.K. 2

Год выхода: 2000
Страна: Канада, Германия / Artisan Film, CinеGroupe, Das Werk, Helkon Media AG, Trixter Film
Жанр: мультфильм, фантастика, фэнтези, приключения
Перевод: Профессиональный (Многоголосый)

Режиссер: Майкл Колдвей, Мишель Лемир
В ролях: Майкл Айронсайд, Джули Стрэйн, Билли Айдол, Пьер Пакетт, Соня Болл, Брэйди Моффатт, Рик Джонс, Артур Холден, Алан Фоусет, Джейн Вудс

О фильме: В далеком прошлом галактиками правили аракианцы, питавшие свою силу из великого источника бессмертия. Спустя века после их гибели ключ к нему нашел коварный злодей Тайлер, вознамерившийся подчинить себе вселенную.
Но на его пути к магическому источнику, спрятанному в каменных палатах на далекой планете Юроборис, встала могучая воительница ФАКК-2, которая будет преследовать Тайлера в ледяных глубинах бескрайнего космоса, обыскивая неведомые миры, населенные жестокими разбойниками, таинственными магами и невероятными созданиями, до тех пор, пока безжалостный тиран своей кровью не заплатит за гибель ее родной планеты.

pic pic pic pic pic
Качество: DVDRip-AVC
Формат: MKV
Продолжительность: 01:27:54
Видео: AVC, 1024x560, 2500 Kbps
Звук: Русский, английский: AC3, 6 ch, 448 Kbps
Субтитры: Русские, английские

General
Unique ID : 243398938382750066980639392342614564589 (0xB71CEE2DCC97D6F08DE8C5CD3BB55EED)
Complete name : D:\ДИСК\04.МУЛЬТФИЛЬМЫ\Тяжёлый металл 2000 Heavy Metal 2000 (Heavy Metal F.A.K.K. 2) (2000)\Tiajiolii.Metall 2000 (2000) DVDRip-AVC.mkv
Format : Matroska
Format version : Version 4 / Version 2
File size : 2.08 GiB
Duration : 1h 27mn
Overall bit rate : 3 385 Kbps
Movie name : Release by ARHANGEL&vamo
Encoded date : UTC 2015-10-04 12:01:16
Writing application : mkvmerge v8.2.0 ('World of Adventure') 64bit
Writing library : XviD4PSP 6.0 / 54.29.105
DURATION : 01:20:10.000000000
NUMBER_OF_FRAMES : 540
NUMBER_OF_BYTES : 17863
_STATISTICS_WRITING_APP : mkvmerge v8.2.0 ('World of Adventure') 64bit
_STATISTICS_WRITING_DATE_UTC : 2015-10-04 12:01:16
_STATISTICS_TAGS : BPS DURATION NUMBER_OF_FRAMES NUMBER_OF_BYTES

Video
ID : 1
Format : AVC
Format/Info : Advanced Video Codec
Format profile : High@L4.1
Format settings, CABAC : Yes
Format settings, ReFrames : 7 frames
Codec ID : V_MPEG4/ISO/AVC
Duration : 1h 27mn
Bit rate : 2 500 Kbps
Width : 1 024 pixels
Height : 560 pixels
Display aspect ratio : 1.85:1
Frame rate mode : Constant
Frame rate : 24.590 fps
Color space : YUV
Chroma subsampling : 4:2:0
Bit depth : 8 bits
Scan type : Progressive
Bits/(Pixel*Frame) : 0.177
Stream size : 1.49 GiB (72%)
Title : Heavy Metal 2000 (Heavy Metal: F.A.K.K. 2)
Writing library : x264 core 128 r2216M 198a7ea
Encoding settings : cabac=1 / ref=8 / deblock=1:-3:-3 / analyse=0x3:0x133 / me=umh / subme=8 / psy=1 / psy_rd=1.00:0.20 / mixed_ref=1 / me_range=16 / chroma_me=1 / trellis=2 / 8x8dct=1 / cqm=0 / deadzone=21,11 / fast_pskip=1 / chroma_qp_offset=-3 / threads=8 / lookahead_threads=1 / sliced_threads=0 / nr=0 / decimate=1 / interlaced=0 / bluray_compat=0 / constrained_intra=0 / bframes=8 / b_pyramid=1 / b_adapt=2 / b_bias=0 / direct=3 / weightb=1 / open_gop=0 / weightp=2 / keyint=240 / keyint_min=24 / scenecut=40 / intra_refresh=0 / rc_lookahead=40 / rc=abr / mbtree=1 / bitrate=2500 / ratetol=1.0 / qcomp=0.60 / qpmin=0 / qpmax=69 / qpstep=4 / ip_ratio=1.40 / aq=1:1.00
Default : Yes
Forced : No
DURATION : 01:27:54.224000000
NUMBER_OF_FRAMES : 129658
NUMBER_OF_BYTES : 1639309958
_STATISTICS_WRITING_APP : mkvmerge v8.2.0 ('World of Adventure') 64bit
_STATISTICS_WRITING_DATE_UTC : 2015-10-04 12:01:16
_STATISTICS_TAGS : BPS DURATION NUMBER_OF_FRAMES NUMBER_OF_BYTES

Audio #1
ID : 2
Format : AC-3
Format/Info : Audio Coding 3
Mode extension : CM (complete main)
Format settings, Endianness : Big
Codec ID : A_AC3
Duration : 1h 27mn
Bit rate mode : Constant
Bit rate : 448 Kbps
Channel(s) : 6 channels
Channel positions : Front: L C R, Side: L R, LFE
Sampling rate : 48.0 KHz
Compression mode : Lossy
Stream size : 282 MiB (13%)
Title : MVO
Language : Russian
Default : Yes
Forced : No
DURATION : 01:27:53.728000000
NUMBER_OF_FRAMES : 164804
NUMBER_OF_BYTES : 295327868
_STATISTICS_WRITING_APP : mkvmerge v8.2.0 ('World of Adventure') 64bit
_STATISTICS_WRITING_DATE_UTC : 2015-10-04 12:01:16
_STATISTICS_TAGS : BPS DURATION NUMBER_OF_FRAMES NUMBER_OF_BYTES

Audio #2
ID : 3
Format : AC-3
Format/Info : Audio Coding 3
Mode extension : CM (complete main)
Format settings, Endianness : Big
Codec ID : A_AC3
Duration : 1h 27mn
Bit rate mode : Constant
Bit rate : 448 Kbps
Channel(s) : 6 channels
Channel positions : Front: L C R, Side: L R, LFE
Sampling rate : 48.0 KHz
Compression mode : Lossy
Stream size : 282 MiB (13%)
Title : Original
Language : English
Default : No
Forced : No
DURATION : 01:27:53.728000000
NUMBER_OF_FRAMES : 164804
NUMBER_OF_BYTES : 295327868
_STATISTICS_WRITING_APP : mkvmerge v8.2.0 ('World of Adventure') 64bit
_STATISTICS_WRITING_DATE_UTC : 2015-10-04 12:01:16
_STATISTICS_TAGS : BPS DURATION NUMBER_OF_FRAMES NUMBER_OF_BYTES

Text #1
ID : 4
Format : UTF-8
Codec ID : S_TEXT/UTF8
Codec ID/Info : UTF-8 Plain Text
Language : Russian
Default : Yes
Forced : No

Text #2
ID : 5
Format : UTF-8
Codec ID : S_TEXT/UTF8
Codec ID/Info : UTF-8 Plain Text
Language : English
Default : No
Forced : No


pic


Информация
Информация Скриншоты Пиры Скачавшие Список файлов
Залил Оценка Просмотров Скачан Файлов
АРХАНГЕЛ 0 386221

Теги
мультфильм, фантастика, фэнтези, приключения

Похожие раздачи

Поиск не дал результатов.Больше похожих раздач →

Список комментариев
Комментарии отсутствуют

Добавить комментарий
Внимание
Гости не могут оставлять комментарии, авторизуйтесь.

Панель навигации

ПОПУЛЯРНЫЕ РАЗДАЧИ
скачать торрент Ледокол (2016) WEB-DLRip | iTunesскачать торрент Доктор Стрэндж (2016) TS
скачать торрент Ледокол (2016) WEB-DL 1080p | iTunesскачать торрент Дуэлянт (2016) CAMRip
скачать торрент Отряд самоубийц (2016) BDRip 1080p | Расширeнная версия | iTunesскачать торрент Джейсон Борн (2016) HDTV 720p | Чистый звук
скачать торрент Первый мститель: Противостояние (2016) BDRip | IMAX Edition | iTunesскачать торрент Тарзан. Легенда (2016) HDRip | iTunes
скачать торрент Dark Souls 3: Deluxe Edition (2016) PC | RePack от xatabскачать торрент Люди Икс: Апокалипсис / X-Men: Apocalypse (2016) BDRip 720p | Лицензия

Будь с нами!


Наши друзья 



Информация, расположенная на данном сервере, предназначена исключительно для частного использования и не может быть загружена/перенесена на другой компьютер. Ни владелец сайта, ни хостинг-провайдер, ни любые другие физические или юридические лица не могут нести никакой отвественностиза любое использование материалов данного сайта.

© 2012-2016 TRACK.KG.