Загрузить Adobe Flash Player
Как тут качать? :: Как встать на раздачу?

Скачать / Download torrent  
Хэш: 5b1321446204f956f417e2127e74c0587755e733
Добавлен: 23 сентября 2015 в 20:38:05
Категория: Фильмы » Зарубежное кино » Ужасы
Размер: 1.71 GB
Проверил: АРХАНГЕЛ 23 сентября 2015 в 20:38:05

Раздают: 114 Качают: 37

Блэквуд / Blackwood (2014) DVDRip-AVC | L2

pic

Название: Блэквуд
Оригинальное название: Blackwood

Год выхода: 2014
Страна: Великобритания / Wildcard Films
Жанр: ужасы, триллер
Перевод: Любительский (двухголосый закадровый) 2D (den904&DeadSno)

Режиссер: Адам Уимпенни
В ролях: Эд Стоппард, София Майлс, Рассел Тови, Исаак Эндрюс, Пол Кэй, Грег Уайз, Джоэнна Вандерхам, Кеннет Коллар, Анна Андресен, Гарри Бертон

О фильме: Профессор колледжа с женой и сыном обретают новое жилье. Они приезжают в огромный старинный особняк, окруженный лесной чащей. Семья сразу же начала обустраиваться и изучать окрестности. Все шло хорошо. Но однажды глава семейства обнаружил, что в доме, кроме них, есть еще кто-то. Он начинает изучать историю дома и приходит к выводу, от которого кровь стынет в жилах: в доме живет настоящее привидение. К тому же сын профессора тоже сталкивался с ним в лесу. А что если это вовсе не призрак, а чей-то дурной розыгрыш? который заставил понервничать всех вокруг.
pic pic pic pic pic pic
Качество: DVDRip-AVC
Формат: MKV
Продолжительность: 01:26:16
Видео: AVC, 1024x432, 2500 Kbps
Звук: Русский, английский: AC3, 2 ch, 192 Кбит/с
Субтитры: Русские / встроенные

General
Unique ID : 178857321637997338971736263383253942370 (0x868EAACA71B087AFAA8407A6D0868062)
Complete name : D:\ДИСК\01.ФИЛЬМЫ\Блэквуд Blackwood (2014)\Блэквуд.2014.DVD-AVC (1).mkv
Format : Matroska
Format version : Version 4 / Version 2
File size : 1.71 GiB
Duration : 1h 26mn
Overall bit rate : 2 840 Kbps
Movie name : Release by vamo
Encoded date : UTC 2015-09-19 13:12:16
Writing application : mkvmerge v8.2.0 ('World of Adventure') 64bit
Writing library : XviD4PSP 6.0 / 54.29.105
DURATION : 01:23:54.550000000
NUMBER_OF_FRAMES : 842
NUMBER_OF_BYTES : 35530
_STATISTICS_WRITING_APP : mkvmerge v8.2.0 ('World of Adventure') 64bit
_STATISTICS_WRITING_DATE_UTC : 2015-09-23 14:13:53
_STATISTICS_TAGS : BPS DURATION NUMBER_OF_FRAMES NUMBER_OF_BYTES

Video
ID : 1
Format : AVC
Format/Info : Advanced Video Codec
Format profile : High@L4.1
Format settings, CABAC : Yes
Format settings, ReFrames : 7 frames
Codec ID : V_MPEG4/ISO/AVC
Duration : 1h 26mn
Bit rate : 2 500 Kbps
Width : 1 024 pixels
Height : 432 pixels
Display aspect ratio : 2.40:1
Frame rate mode : Constant
Frame rate : 25.000 fps
Color space : YUV
Chroma subsampling : 4:2:0
Bit depth : 8 bits
Scan type : Progressive
Bits/(Pixel*Frame) : 0.226
Stream size : 1.45 GiB (84%)
Writing library : x264 core 128 r2216M 198a7ea
Encoding settings : cabac=1 / ref=8 / deblock=1:-3:-3 / analyse=0x3:0x133 / me=umh / subme=8 / psy=1 / psy_rd=1.00:0.20 / mixed_ref=1 / me_range=16 / chroma_me=1 / trellis=2 / 8x8dct=1 / cqm=0 / deadzone=21,11 / fast_pskip=1 / chroma_qp_offset=-3 / threads=8 / lookahead_threads=1 / sliced_threads=0 / nr=0 / decimate=1 / interlaced=0 / bluray_compat=0 / constrained_intra=0 / bframes=8 / b_pyramid=1 / b_adapt=0 / b_bias=0 / direct=3 / weightb=1 / open_gop=0 / weightp=0 / keyint=250 / keyint_min=25 / scenecut=40 / intra_refresh=0 / rc_lookahead=40 / rc=abr / mbtree=1 / bitrate=2500 / ratetol=1.0 / qcomp=0.60 / qpmin=0 / qpmax=69 / qpstep=4 / ip_ratio=1.40 / aq=1:1.00
Default : Yes
Forced : No
DURATION : 01:26:13.280000000
NUMBER_OF_FRAMES : 129332
NUMBER_OF_BYTES : 1587565129
_STATISTICS_WRITING_APP : mkvmerge v8.2.0 ('World of Adventure') 64bit
_STATISTICS_WRITING_DATE_UTC : 2015-09-23 14:13:53
_STATISTICS_TAGS : BPS DURATION NUMBER_OF_FRAMES NUMBER_OF_BYTES

Audio #1
ID : 2
Format : AC-3
Format/Info : Audio Coding 3
Mode extension : CM (complete main)
Format settings, Endianness : Big
Codec ID : A_AC3
Duration : 1h 26mn
Bit rate mode : Constant
Bit rate : 192 Kbps
Channel(s) : 2 channels
Channel positions : Front: L R
Sampling rate : 48.0 KHz
Compression mode : Lossy
Stream size : 118 MiB (7%)
Title : 2D
Language : Russian
Default : Yes
Forced : No
DURATION : 01:26:16.096000000
NUMBER_OF_FRAMES : 161753
NUMBER_OF_BYTES : 124226304
_STATISTICS_WRITING_APP : mkvmerge v8.2.0 ('World of Adventure') 64bit
_STATISTICS_WRITING_DATE_UTC : 2015-09-23 14:13:53
_STATISTICS_TAGS : BPS DURATION NUMBER_OF_FRAMES NUMBER_OF_BYTES

Audio #2
ID : 3
Format : AC-3
Format/Info : Audio Coding 3
Mode extension : CM (complete main)
Format settings, Endianness : Big
Codec ID : A_AC3
Duration : 1h 26mn
Bit rate mode : Constant
Bit rate : 192 Kbps
Channel(s) : 2 channels
Channel positions : Front: L R
Sampling rate : 48.0 KHz
Compression mode : Lossy
Stream size : 118 MiB (7%)
Title : Original
Language : English
Default : No
Forced : No
DURATION : 01:26:13.344000000
NUMBER_OF_FRAMES : 161667
NUMBER_OF_BYTES : 124160256
_STATISTICS_WRITING_APP : mkvmerge v8.2.0 ('World of Adventure') 64bit
_STATISTICS_WRITING_DATE_UTC : 2015-09-23 14:13:53
_STATISTICS_TAGS : BPS DURATION NUMBER_OF_FRAMES NUMBER_OF_BYTES

Text
ID : 4
Format : UTF-8
Codec ID : S_TEXT/UTF8
Codec ID/Info : UTF-8 Plain Text
Title : Antonio
Language : Russian
Default : No
Forced : No


pic


Информация
Информация Скриншоты Пиры Скачавшие Список файлов
Залил Оценка Просмотров Скачан Файлов
АРХАНГЕЛ 0 274101

Теги
ужасы, триллер

Похожие раздачи

Поиск не дал результатов.Больше похожих раздач →

Список комментариев
Комментарии отсутствуют

Добавить комментарий
Внимание
Гости не могут оставлять комментарии, авторизуйтесь.

Панель навигации

ПОПУЛЯРНЫЕ РАЗДАЧИ
скачать торрент Ледокол (2016) WEB-DLRip | iTunesскачать торрент Доктор Стрэндж (2016) TS
скачать торрент Ледокол (2016) WEB-DL 1080p | iTunesскачать торрент Дуэлянт (2016) CAMRip
скачать торрент Отряд самоубийц (2016) BDRip 1080p | Расширeнная версия | iTunesскачать торрент Джейсон Борн (2016) HDTV 720p | Чистый звук
скачать торрент Первый мститель: Противостояние (2016) BDRip | IMAX Edition | iTunesскачать торрент Тарзан. Легенда (2016) HDRip | iTunes
скачать торрент Полтора шпиона (2016) BDRip 1080p | Лицензияскачать торрент Джейсон Борн (2016) HDTV 1080p | Чистый звук

Будь с нами!


Наши друзья 



Информация, расположенная на данном сервере, предназначена исключительно для частного использования и не может быть загружена/перенесена на другой компьютер. Ни владелец сайта, ни хостинг-провайдер, ни любые другие физические или юридические лица не могут нести никакой отвественностиза любое использование материалов данного сайта.

© 2012-2016 TRACK.KG.