Загрузить Adobe Flash Player
Как тут качать? :: Как встать на раздачу?

Скачать / Download torrent  
Хэш: 30012b880aad88b989a1bb14c1ccb50c4ef05327
Добавлен: 18 сентября 2015 в 00:48:55
Категория: Мультфильмы
Размер: 1.52 GB
Проверил: АРХАНГЕЛ 18 сентября 2015 в 00:48:55

Раздают: 6 Качают: 2

Необыкновенное путешествие Серафимы (2015) WEB-DLRip-AVC | iTunes

pic

Название: Необыкновенное путешествие Серафимы

Год выхода: 2015
Страна: Россия / КиноАтис
Жанр: мультфильм, фэнтези, приключения
Перевод: Оригинал iTunes


Режиссер: Сергей Антонов
В ролях: Александр Михайлов, Алина Михайлова, Виктория Дробина, Вера Васильева, Анастасия Бартяева, Владимир Левашёв, Наталья Грачёва, Анна Волкова, Анна Мещан, Мария Мещан

О фильме: Сима Воскресенская, лишившаяся родителей в самом начале войны, живет в детском доме и втайне хранит нашейный крест, напоминающий ей о любимой семье. Однажды Сима знакомится с Ритой — девочкой, которая открывает ей, что дом полон секретов и призраков, и предлагает ей отправиться в загадочную каморку под лестницей, чтобы посмотреть на одного из них. Кто бы мог подумать, что приглашение поможет Серафиме раскрыть тайну детского дома и пролить свет на судьбу родителей…
pic pic pic
Качество: WEB-DLRip-AVC
Формат: MKV
Продолжительность: 01:14:57
Видео: AVC, 1024x576, 2500 Kbps
Звук: AC3, 2 ch, 384 Kbps

General
Unique ID : 30566044163186187703682637288489799331 (0x16FECE5448133F380058398F3F5ACEA3)
Complete name : D:\ДИСК\04.МУЛЬТФИЛЬМЫ\Необыкновенное путешествие Серафимы (2015)\CePaF1ma.2015.O.WEB-DL-AVC.mkv
Format : Matroska
Format version : Version 2
File size : 1.52 GiB
Duration : 1h 14mn
Overall bit rate : 2 897 Kbps
Encoded date : UTC 2015-09-16 19:06:18
Writing application : XviD4PSP 6.0 / 54.29.105
Writing library : XviD4PSP 6.0 / 54.29.105

Video
ID : 1
Format : AVC
Format/Info : Advanced Video Codec
Format profile : High@L4.1
Format settings, CABAC : Yes
Format settings, ReFrames : 4 frames
Codec ID : V_MPEG4/ISO/AVC
Duration : 1h 14mn
Bit rate : 2 500 Kbps
Width : 1 024 pixels
Height : 576 pixels
Display aspect ratio : 16:9
Frame rate mode : Constant
Frame rate : 24.000 fps
Color space : YUV
Chroma subsampling : 4:2:0
Bit depth : 8 bits
Scan type : Progressive
Bits/(Pixel*Frame) : 0.177
Stream size : 1.29 GiB (85%)
Writing library : x264 core 128 r2216M 198a7ea
Encoding settings : cabac=1 / ref=5 / deblock=1:-2:-2 / analyse=0x3:0x133 / me=umh / subme=5 / psy=1 / psy_rd=1.00:0.20 / mixed_ref=1 / me_range=16 / chroma_me=1 / trellis=2 / 8x8dct=1 / cqm=0 / deadzone=21,11 / fast_pskip=1 / chroma_qp_offset=-1 / threads=5 / lookahead_threads=1 / sliced_threads=0 / nr=0 / decimate=1 / interlaced=0 / bluray_compat=0 / constrained_intra=0 / bframes=5 / b_pyramid=1 / b_adapt=0 / b_bias=0 / direct=3 / weightb=1 / open_gop=0 / weightp=0 / keyint=240 / keyint_min=24 / scenecut=40 / intra_refresh=0 / rc_lookahead=40 / rc=abr / mbtree=1 / bitrate=2500 / ratetol=1.0 / qcomp=0.60 / qpmin=0 / qpmax=69 / qpstep=4 / ip_ratio=1.40 / aq=1:1.00
Language : English
Default : Yes
Forced : No

Audio
ID : 2
Format : AC-3
Format/Info : Audio Coding 3
Mode extension : CM (complete main)
Format settings, Endianness : Big
Codec ID : A_AC3
Duration : 1h 14mn
Bit rate mode : Constant
Bit rate : 384 Kbps
Channel(s) : 6 channels
Channel positions : Front: L C R, Side: L R, LFE
Sampling rate : 48.0 KHz
Bit depth : 16 bits
Compression mode : Lossy
Stream size : 206 MiB (13%)
Language : Russian
Default : Yes
Forced : No


pic


Информация
Информация Скриншоты Пиры Скачавшие Список файлов
Залил Оценка Просмотров Скачан Файлов
АРХАНГЕЛ 0 617371

Теги
мультфильм, фэнтези, приключения

Похожие раздачи

BBC. Орбита: Необыкновенное путешествие планеты Земля / Orbit: Earth's Extraordinary Journey [Серии 1-3 из 3] (2012) BDRip | P2 1.88 GB

Больше похожих раздач →

Список комментариев
Комментарии отсутствуют

Добавить комментарий
Внимание
Гости не могут оставлять комментарии, авторизуйтесь.

Панель навигации

ПОПУЛЯРНЫЕ РАЗДАЧИ
скачать торрент Ледокол (2016) WEB-DLRip | iTunesскачать торрент Доктор Стрэндж (2016) TS
скачать торрент Ледокол (2016) WEB-DL 1080p | iTunesскачать торрент Дуэлянт (2016) CAMRip
скачать торрент Отряд самоубийц (2016) BDRip 1080p | Расширeнная версия | iTunesскачать торрент Джейсон Борн (2016) HDTV 720p | Чистый звук
скачать торрент Первый мститель: Противостояние (2016) BDRip | IMAX Edition | iTunesскачать торрент Тарзан. Легенда (2016) HDRip | iTunes
скачать торрент Dark Souls 3: Deluxe Edition (2016) PC | RePack от xatabскачать торрент Люди Икс: Апокалипсис / X-Men: Apocalypse (2016) BDRip 720p | Лицензия

Будь с нами!


Наши друзья 



Информация, расположенная на данном сервере, предназначена исключительно для частного использования и не может быть загружена/перенесена на другой компьютер. Ни владелец сайта, ни хостинг-провайдер, ни любые другие физические или юридические лица не могут нести никакой отвественностиза любое использование материалов данного сайта.

© 2012-2016 TRACK.KG.