Загрузить Adobe Flash Player
Как тут качать? :: Как встать на раздачу?

Скачать / Download torrent  
Хэш: 95ad2df6519dbe31cb3118fad362c2025db5ecb8
Добавлен: 2 сентября 2015 в 17:44:00
Категория: Мультфильмы
Размер: 3.57 GB
Проверил: АРХАНГЕЛ 2 сентября 2015 в 17:44:00

Раздают: 0 Качают: 0

Приключения Мортадело и Филимона 3 / Mortadelo y Filemón contra Jimmy el Cachondo (2014) BDRip 1080p | L1

pic

Название: Приключения Мортадело и Филимона 3
Оригинальное название: Mortadelo y Filemon contra Jimmy el Cachondo

Год выхода: 2014
Страна: Испания / Canal+Espana, Televisio de Catalunya (TV3), Television Espanola (TVE), Zeta Audiovisual
Жанр: мультфильм, чёрная комедия
Перевод: любительский (одноголосый)

Режиссер: Хавьер Фессер / Javier Fesser
В ролях: Карра Элехальде, Джанфри Топера, Гэбриель Шаме, Рамон Ланга, Victor Monigote, Хосе Алиас, Мариано Венансио

Офильме: Злодей Джимми со своими помощниками похищает сейф с секретными документами прямо из штаб-квартиры разведагентства. Его начальнику не остается ничего иного как поручить возвращение документов двум агентам Мортадело и Филимону. В то же время из тюрьмы сбегает бандит, который жаждет отомстить Филимону за арест.
pic pic pic pic
Качество: BDRip 1080p
Формат: MKV
Продолжительность: 01:32:04
Видео: MPEG-4 AVC, 1920x1036, 4950 Кбит/с
Звук: русский: AC3, 2 ch, 192 Кбит/с, английский: AC3, 6 ch, 448 Кбит/с

General
Unique ID : 187608128740511256226674877174943201714 (0x8D2402E43DAF609989D6D1A26CCA39B2)
Complete name : D:\ДИСК\04.МУЛЬТФИЛЬМЫ\Приключения Мортадело и Филимона 3 Mortadelo y Filemon contra Jimmy el Cachondo (2014)\Mortadelo y Filemon contra Jimmy el Cachondo.BDRip 1080.mkv
Format : Matroska
Format version : Version 4 / Version 2
File size : 3.57 GiB
Duration : 1h 32mn
Overall bit rate : 5 538 Kbps
Encoded date : UTC 2015-09-02 11:01:12
Writing application : mkvmerge v8.2.0 ('World of Adventure') 64bit
Writing library : libebml v1.3.1 + libmatroska v1.4.2
DURATION : 01:32:10.080000000
NUMBER_OF_FRAMES : 172815
NUMBER_OF_BYTES : 309684480
_STATISTICS_WRITING_APP : mkvmerge v8.2.0 ('World of Adventure') 64bit
_STATISTICS_WRITING_DATE_UTC : 2015-09-02 11:01:12
_STATISTICS_TAGS : BPS DURATION NUMBER_OF_FRAMES NUMBER_OF_BYTES

Video
ID : 1
Format : AVC
Format/Info : Advanced Video Codec
Format profile : High@L4.1
Format settings, CABAC : Yes
Format settings, ReFrames : 2 frames
Codec ID : V_MPEG4/ISO/AVC
Duration : 1h 32mn
Bit rate : 4 960 Kbps
Width : 1 920 pixels
Height : 1 036 pixels
Display aspect ratio : 1.85:1
Frame rate mode : Constant
Frame rate : 23.976 fps
Color space : YUV
Chroma subsampling : 4:2:0
Bit depth : 8 bits
Scan type : Progressive
Bits/(Pixel*Frame) : 0.104
Stream size : 3.08 GiB (86%)
Writing library : x264 core 142
Encoding settings : cabac=1 / ref=1 / deblock=1:-1:-1 / analyse=0x3:0 / me=hex / subme=5 / psy=0 / mixed_ref=0 / me_range=16 / chroma_me=1 / trellis=0 / 8x8dct=1 / cqm=0 / deadzone=21,11 / fast_pskip=1 / chroma_qp_offset=0 / threads=16 / lookahead_threads=4 / sliced_threads=0 / nr=0 / decimate=1 / interlaced=0 / bluray_compat=0 / constrained_intra=0 / bframes=2 / b_pyramid=0 / b_adapt=1 / b_bias=0 / direct=1 / weightb=1 / open_gop=0 / weightp=0 / keyint=24 / keyint_min=13 / scenecut=40 / intra_refresh=0 / rc=abr / mbtree=0 / bitrate=4960 / ratetol=1.0 / qcomp=0.60 / qpmin=0 / qpmax=69 / qpstep=4 / ip_ratio=1.40 / pb_ratio=1.30 / aq=1:1.00
Language : English
Default : Yes
Forced : No
Color range : Limited
Color primaries : BT.709
Transfer characteristics : BT.709
Matrix coefficients : BT.709

Audio #1
ID : 2
Format : AC-3
Format/Info : Audio Coding 3
Mode extension : CM (complete main)
Format settings, Endianness : Big
Codec ID : A_AC3
Duration : 1h 32mn
Bit rate mode : Constant
Bit rate : 192 Kbps
Channel(s) : 2 channels
Channel positions : Front: L R
Sampling rate : 44.1 KHz
Compression mode : Lossy
Stream size : 127 MiB (3%)
Language : Russian
Default : Yes
Forced : No

Audio #2
ID : 3
Format : AC-3
Format/Info : Audio Coding 3
Mode extension : CM (complete main)
Format settings, Endianness : Big
Codec ID : A_AC3
Duration : 1h 32mn
Bit rate mode : Constant
Bit rate : 448 Kbps
Channel(s) : 6 channels
Channel positions : Front: L C R, Side: L R, LFE
Sampling rate : 48.0 KHz
Compression mode : Lossy
Stream size : 295 MiB (8%)
Language : English
Default : No
Forced : No

Menu
00:00:00.000 : en:(01)00:00:00:000
00:08:49.070 : en:(02)00:08:49:070
00:20:06.330 : en:(03)00:20:06:330
00:30:31.079 : en:(04)00:30:31:079
00:38:01.529 : en:(05)00:38:01:529
00:50:07.421 : en:(06)00:50:07:421
01:02:47.305 : en:(07)01:02:47:305
01:12:45.361 : en:(08)01:12:45:361
01:25:14.859 : en:(09)01:25:14:859



pic


Информация
Информация Скриншоты Пиры Скачавшие Список файлов
Залил Оценка Просмотров Скачан Файлов
АРХАНГЕЛ 0 662271

Теги
мультфильм, чёрная комедия

Похожие раздачи

Приключения Мортадело и Филимона 3 / Mortadelo y Filemón contra Jimmy el Cachondo (2014) HDRip | L1 1.45 GB

Приключения Мортадело и Филимона / Mortadelo & Filemon - The Big Adventure (2003) HDRip | Лицензия 1.45 GB

Больше похожих раздач →

Список комментариев
Комментарии отсутствуют

Добавить комментарий
Внимание
Гости не могут оставлять комментарии, авторизуйтесь.

Панель навигации

ПОПУЛЯРНЫЕ РАЗДАЧИ
скачать торрент Ледокол (2016) WEB-DLRip | iTunesскачать торрент Доктор Стрэндж (2016) TS
скачать торрент Ледокол (2016) WEB-DL 1080p | iTunesскачать торрент Дуэлянт (2016) CAMRip
скачать торрент Отряд самоубийц (2016) BDRip 1080p | Расширeнная версия | iTunesскачать торрент Джейсон Борн (2016) HDTV 720p | Чистый звук
скачать торрент Первый мститель: Противостояние (2016) BDRip | IMAX Edition | iTunesскачать торрент Тарзан. Легенда (2016) HDRip | iTunes
скачать торрент Dark Souls 3: Deluxe Edition (2016) PC | RePack от xatabскачать торрент Люди Икс: Апокалипсис / X-Men: Apocalypse (2016) BDRip 720p | Лицензия

Будь с нами!


Наши друзья 



Информация, расположенная на данном сервере, предназначена исключительно для частного использования и не может быть загружена/перенесена на другой компьютер. Ни владелец сайта, ни хостинг-провайдер, ни любые другие физические или юридические лица не могут нести никакой отвественностиза любое использование материалов данного сайта.

© 2012-2016 TRACK.KG.