Загрузить Adobe Flash Player
Как тут качать? :: Как встать на раздачу?

Скачать / Download torrent  
Хэш: d22b7a7bc647e67eb010bda1f601046093c4dbec
Добавлен: 31 августа 2015 в 23:59:32
Категория: Фильмы » Зарубежное кино » Триллеры / Криминал
Размер: 1.71 GB
Проверил: АРХАНГЕЛ 31 августа 2015 в 23:59:32

Раздают: 0 Качают: 0

Проникновение в опасный разум / Enter the Dangerous Mind (2013) HDRip-AVC | L1

pic

Название: Проникновение в опасный разум
Оригинальное название: Enter the Dangerous Mind

Год выхода: 2013
Страна: США / Cima Productions, Vedette Finance
Жанр: триллер
Перевод: Любительский (одноголосый закадровый) Хихикающий доктор


Режиссер: Юссеф Делара, Виктор Теран
В ролях: Никки Рид, Томас Деккер, Джина Родригез, Скотт Бакула, Джейсон Пристли, Ноэль Гульеми, Дэвид Бьянчи, Ана Клаудия Таланкон, Джейк Хоффман, Джозеф Джулиан Сория

Офильме: Это история об одарённом, но патологически интровертном музыканте, выражающего себя через модный дабстеп. Второй одержимостью, значительно более вредоносной, чем электронные звуки музыки, для героя становится увлечение молодой социальной работницей. Девушка восхищена музыкальным талантом молодого человека и начинает проявлять к нему романтический интерес, не подозревая, что хэппи-энда у этой истории любви не будет.
pic pic pic pic pic pic
Качество: HDRip-AVC
Формат: MKV
Продолжительность: 01:28:39
Видео: AVC, 1024x432, 2500 Kbps
Звук: AC-3 at 256 Kbps

General
Unique ID : 198056214823306316203682969319203269205 (0x95003D4E90048EF870A2CFE88365EA55)
Complete name : D:\ДИСК\01.ФИЛЬМЫ\Проникновение в опасный разум Enter the Dangerous Mind (2013)\Enter the Dangerous Mind (2013) HDRip-AVC.mkv
Format : Matroska
Format version : Version 2
File size : 1.71 GiB
Duration : 1h 28mn
Overall bit rate : 2 759 Kbps
Writing application : XviD4PSP 6.0 / 54.29.105
Writing library : XviD4PSP 6.0 / 54.29.105

Video
ID : 1
Format : AVC
Format/Info : Advanced Video Codec
Format profile : High@L4.1
Format settings, CABAC : Yes
Format settings, ReFrames : 6 frames
Codec ID : V_MPEG4/ISO/AVC
Duration : 1h 28mn
Bit rate : 2 500 Kbps
Width : 1 024 pixels
Height : 432 pixels
Display aspect ratio : 2.40:1
Frame rate mode : Constant
Frame rate : 23.976 fps
Color space : YUV
Chroma subsampling : 4:2:0
Bit depth : 8 bits
Scan type : Progressive
Bits/(Pixel*Frame) : 0.236
Stream size : 1.52 GiB (89%)
Writing library : x264 core 128 r2216M 198a7ea
Encoding settings : cabac=1 / ref=7 / deblock=1:-1:-1 / analyse=0x3:0x133 / me=umh / subme=7 / psy=1 / psy_rd=1.00:0.15 / mixed_ref=1 / me_range=16 / chroma_me=1 / trellis=2 / 8x8dct=1 / cqm=0 / deadzone=21,11 / fast_pskip=1 / chroma_qp_offset=-3 / threads=7 / lookahead_threads=1 / sliced_threads=0 / nr=0 / decimate=1 / interlaced=0 / bluray_compat=0 / constrained_intra=0 / bframes=7 / b_pyramid=1 / b_adapt=2 / b_bias=0 / direct=3 / weightb=1 / open_gop=0 / weightp=2 / keyint=230 / keyint_min=23 / scenecut=40 / intra_refresh=0 / rc_lookahead=40 / rc=2pass / mbtree=1 / bitrate=2500 / ratetol=1.0 / qcomp=0.60 / qpmin=0 / qpmax=69 / qpstep=4 / cplxblur=20.0 / qblur=0.5 / ip_ratio=1.40 / aq=1:1.00
Default : Yes
Forced : No
HANDLER_NAME : VideoHandler

Audio
ID : 2
Format : AC-3
Format/Info : Audio Coding 3
Mode extension : CM (complete main)
Format settings, Endianness : Big
Codec ID : A_AC3
Duration : 1h 28mn
Bit rate mode : Constant
Bit rate : 256 Kbps
Channel(s) : 2 channels
Channel positions : Front: L R
Sampling rate : 44.1 KHz
Bit depth : 16 bits
Compression mode : Lossy
Delay relative to video : 6ms
Stream size : 162 MiB (9%)
Language : Russian
Default : Yes
Forced : No
HANDLER_NAME : SoundHandler



pic


Информация
Информация Скриншоты Пиры Скачавшие Список файлов
Залил Оценка Просмотров Скачан Файлов
АРХАНГЕЛ 0 329171

Теги
триллер

Похожие раздачи

Поиск не дал результатов.Больше похожих раздач →

Список комментариев
Комментарии отсутствуют

Добавить комментарий
Внимание
Гости не могут оставлять комментарии, авторизуйтесь.

Панель навигации

ПОПУЛЯРНЫЕ РАЗДАЧИ
скачать торрент Ледокол (2016) WEB-DLRip | iTunesскачать торрент Доктор Стрэндж (2016) TS
скачать торрент Ледокол (2016) WEB-DL 1080p | iTunesскачать торрент Дуэлянт (2016) CAMRip
скачать торрент Отряд самоубийц (2016) BDRip 1080p | Расширeнная версия | iTunesскачать торрент Джейсон Борн (2016) HDTV 720p | Чистый звук
скачать торрент Первый мститель: Противостояние (2016) BDRip | IMAX Edition | iTunesскачать торрент Тарзан. Легенда (2016) HDRip | iTunes
скачать торрент Полтора шпиона (2016) BDRip 1080p | Лицензияскачать торрент Джейсон Борн (2016) HDTV 1080p | Чистый звук

Будь с нами!


Наши друзья 



Информация, расположенная на данном сервере, предназначена исключительно для частного использования и не может быть загружена/перенесена на другой компьютер. Ни владелец сайта, ни хостинг-провайдер, ни любые другие физические или юридические лица не могут нести никакой отвественностиза любое использование материалов данного сайта.

© 2012-2016 TRACK.KG.