Загрузить Adobe Flash Player
Как тут качать? :: Как встать на раздачу?

Скачать / Download torrent  
Хэш: 877c9778005c8aae92b243ef830e36a1f19173ea
Добавлен: 24 августа 2015 в 06:55:51
Категория: Мультфильмы
Размер: 1.61 GB
Проверил: АРХАНГЕЛ 24 августа 2015 в 06:55:51

Раздают: 0 Качают: 0

Звериный отряд / Cuccioli: Il Paese del Vento (2014) DVDRip-AVC | Лицензия

pic

Название: Звериный отряд
Оригинальное название: Cuccioli: Il Paese del Vento

Год выхода: 2014
Страна: Италия / Gruppo Alcuni
Жанр: Мультфильм, приключения
Перевод: Дублированный Лицензия

Режиссер: Серджо Манфио

О фильме: Команда, состоящая из отважных зверушек, живет в Стране Ветров — в мире, где абсолютно все работает только от энергии ветра: автомобили, дирижабли и даже автоматы с мороженым. Ветер здесь дует всегда благодаря необыкновенному Вращающемуся Колесу, расположенному внутри горы. Но, однажды, Злая ведьма похищает Колесо, чтобы осуществить свои коварные планы и вся жизнь в Стране Ветров останавливается. Сможет ли Звериный отряд помешать злой колдунье и спасти жителей Страны Ветров?

pic pic pic pic
Качество: DVDRip-AVC
Формат: MKV
Продолжительность: 01:17:54
Видео: AVC, 1024x576, 2500 Kbps
Звук: AC3, 6 ch, 448 Kbps

General
Unique ID : 254661094272647676297150806273027226938 (0xBF95F155A3D1085788C2066C96343D3A)
Complete name : D:\ДИСК\04.МУЛЬТФИЛЬМЫ\Звериный отряд Cuccioli Il Paese del Vento (2014)\Zveriniy.Otryad.2014.O.DVDRip-AVC.mkv
Format : Matroska
Format version : Version 4 / Version 2
File size : 1.61 GiB
Duration : 1h 17mn
Overall bit rate : 2 949 Kbps
Encoded date : UTC 2015-08-24 00:36:56
Writing application : mkvmerge v8.2.0 ('World of Adventure') 64bit
Writing library : XviD4PSP 6.0 / 54.29.105
COPYRIGHT : UNIONGANG&RUSTORRENTS
ARTIST : Carl Gaus

Video
ID : 2
Format : AVC
Format/Info : Advanced Video Codec
Format profile : High@L4.1
Format settings, CABAC : Yes
Format settings, ReFrames : 6 frames
Codec ID : V_MPEG4/ISO/AVC
Duration : 1h 17mn
Bit rate : 2 500 Kbps
Width : 1 024 pixels
Height : 576 pixels
Display aspect ratio : 16:9
Original display aspect ratio : 16:9
Frame rate mode : Constant
Frame rate : 25.000 fps
Color space : YUV
Chroma subsampling : 4:2:0
Bit depth : 8 bits
Scan type : Progressive
Bits/(Pixel*Frame) : 0.170
Stream size : 1.33 GiB (83%)
Writing library : x264 core 128 r2216M 198a7ea
Encoding settings : cabac=1 / ref=7 / deblock=1:-3:-3 / analyse=0x3:0x133 / me=umh / subme=7 / psy=1 / psy_rd=1.00:0.20 / mixed_ref=1 / me_range=32 / chroma_me=1 / trellis=2 / 8x8dct=1 / cqm=0 / deadzone=21,11 / fast_pskip=1 / chroma_qp_offset=-3 / threads=7 / lookahead_threads=1 / sliced_threads=0 / nr=0 / decimate=1 / interlaced=0 / bluray_compat=0 / constrained_intra=0 / bframes=7 / b_pyramid=1 / b_adapt=2 / b_bias=0 / direct=3 / weightb=1 / open_gop=0 / weightp=2 / keyint=250 / keyint_min=25 / scenecut=40 / intra_refresh=0 / rc_lookahead=40 / rc=2pass / mbtree=1 / bitrate=2500 / ratetol=1.0 / qcomp=0.60 / qpmin=0 / qpmax=69 / qpstep=4 / cplxblur=20.0 / qblur=0.5 / ip_ratio=1.40 / aq=1:1.00
Default : Yes
Forced : No
DURATION : 01:17:54.752000000
NUMBER_OF_FRAMES : 146086
NUMBER_OF_BYTES : 261786112
_STATISTICS_WRITING_APP : mkvmerge v8.2.0 ('World of Adventure') 64bit
_STATISTICS_WRITING_DATE_UTC : 2015-08-24 00:36:56
_STATISTICS_TAGS : BPS DURATION NUMBER_OF_FRAMES NUMBER_OF_BYTES

Audio
ID : 1
Format : AC-3
Format/Info : Audio Coding 3
Mode extension : CM (complete main)
Format settings, Endianness : Big
Codec ID : A_AC3
Duration : 1h 17mn
Bit rate mode : Constant
Bit rate : 448 Kbps
Channel(s) : 6 channels
Channel positions : Front: L C R, Side: L R, LFE
Sampling rate : 48.0 KHz
Compression mode : Lossy
Stream size : 250 MiB (15%)
Default : Yes
Forced : No
DURATION : 01:17:54.560000000
NUMBER_OF_FRAMES : 116864
NUMBER_OF_BYTES : 1460548108
_STATISTICS_WRITING_APP : mkvmerge v8.2.0 ('World of Adventure') 64bit
_STATISTICS_WRITING_DATE_UTC : 2015-08-24 00:36:56
_STATISTICS_TAGS : BPS DURATION NUMBER_OF_FRAMES NUMBER_OF_BYTES



pic


Информация
Информация Скриншоты Пиры Скачавшие Список файлов
Залил Оценка Просмотров Скачан Файлов
АРХАНГЕЛ 0 188141

Теги
мультфильм, приключения

Похожие раздачи

Поиск не дал результатов.Больше похожих раздач →

Список комментариев
Комментарии отсутствуют

Добавить комментарий
Внимание
Гости не могут оставлять комментарии, авторизуйтесь.

Панель навигации

ПОПУЛЯРНЫЕ РАЗДАЧИ
скачать торрент Ледокол (2016) WEB-DLRip | iTunesскачать торрент Доктор Стрэндж (2016) TS
скачать торрент Ледокол (2016) WEB-DL 1080p | iTunesскачать торрент Дуэлянт (2016) CAMRip
скачать торрент Отряд самоубийц (2016) BDRip 1080p | Расширeнная версия | iTunesскачать торрент Джейсон Борн (2016) HDTV 720p | Чистый звук
скачать торрент Первый мститель: Противостояние (2016) BDRip | IMAX Edition | iTunesскачать торрент Тарзан. Легенда (2016) HDRip | iTunes
скачать торрент Dark Souls 3: Deluxe Edition (2016) PC | RePack от xatabскачать торрент Люди Икс: Апокалипсис / X-Men: Apocalypse (2016) BDRip 720p | Лицензия

Будь с нами!


Наши друзья 



Информация, расположенная на данном сервере, предназначена исключительно для частного использования и не может быть загружена/перенесена на другой компьютер. Ни владелец сайта, ни хостинг-провайдер, ни любые другие физические или юридические лица не могут нести никакой отвественностиза любое использование материалов данного сайта.

© 2012-2016 TRACK.KG.