Загрузить Adobe Flash Player
Как тут качать? :: Как встать на раздачу?

Скачать / Download torrent  
Хэш: a1de42e160366c72d44a4bd1abc0e28036b7f9e2
Добавлен: 25 мая 2015 в 19:05:22
Категория: Фильмы » Зарубежное кино » Мелодрамы / Драмы
Размер: 4.51 GB
Проверил: АРХАНГЕЛ 25 мая 2015 в 19:05:22

Раздают: 23 Качают: 2

Неугасающий / Forever Strong (2008) BDRip 720p | L1

pic

«Самые большие победы рождаются в сердце»

Название: Неугасающий
Оригинальное название: Forever Strong

Год выхода: 2008
Страна: США / Go Films, Picture Rock Entertainment
Жанр: драма, спорт
Перевод: Любительский (одноголосый) AJ Cole

Режиссер: Райан Литтл / Ryan Little
В ролях: Гэри Коул / Gary Cole, Шон Эстин / Sean Astin, Нил МакДонаф / Neal McDonough, Шон Фэрис / Sean Faris, Джули Уорнер / Julie Warner, Пенн Бэджли / Penn Badgley, Элиот Бенжамин / Eliot Benjamin, Майкл Дж. Паган / Michael J. Pagan, Натан Уэст / Nathan West, Макс Кэш / Max Kasch

О фильме: Рик Пенинг живёт точно так же, как играет в регби: быстро, жёстко и интенсивно. Когда такая жизнь доводит его до тюрьмы, тюремный опекун Маркус Тэйт предлагает ему шанс возвратиться к игре, но играя за его конкурентов, «Highland Rugby». Неохотно Рик присоединяется к команде, где он должен принять изнурительный график обучения и уникальный кодекс поведения, который предписывает тренер Джелвикс, или завершить сезон за решеткой.

Как только Рик начинает чувствовать себя частью команды, его выпускают из тюрьмы домой, где он должен присоединиться к его прежней команде, тренируемой его отцом. Выпадая в жеребьевке против «Highland», в национальном чемпионате, Рик должен выбрать за кого играть…

pic pic pic


Качество: BDRip 720p
Формат: MKV
Продолжительность: 01:49:37
Видео: AVС, 1280x720, 5057 Kbps
Звук: Русский AC3, 2 ch, 192 Кbps / Английский AC3, 5.1 ch, 640 kbps
Субтитры: Русские (от feabue), английские

General
Unique ID : 229641951986395569525060295774505854975 (0xACC36E61EE6BA85AB03E4DB4D194E7FF)
Complete name : D:\ДИСК\01.ФИЛЬМЫ\Неугасающий Forever Strong 2008\Forever Strong.2008.BD.Rip.720p.h264.Rus.Eng.mkv
Format : Matroska
Format version : Version 2
File size : 4.51 GiB
Duration : 1h 49mn
Overall bit rate : 5 891 Kbps
Movie name : Неугасающий / Forever Strong (2008)
Encoded date : UTC 2010-01-29 12:35:21
Writing application : mkvmerge v3.0.0 ('Hang up your Hang-Ups') built on Dec 12 2009 15:20:35
Writing library : libebml v0.7.9 + libmatroska v0.8.1

Video
ID : 1
Format : AVC
Format/Info : Advanced Video Codec
Format profile : High@L4.1
Format settings, CABAC : Yes
Format settings, ReFrames : 5 frames
Codec ID : V_MPEG4/ISO/AVC
Duration : 1h 49mn
Bit rate : 5 057 Kbps
Width : 1 280 pixels
Height : 720 pixels
Display aspect ratio : 16:9
Frame rate mode : Constant
Frame rate : 23.976 fps
Color space : YUV
Chroma subsampling : 4:2:0
Bit depth : 8 bits
Scan type : Progressive
Bits/(Pixel*Frame) : 0.229
Stream size : 3.78 GiB (84%)
Title : Forever Strong (1280x720)
Writing library : x264 core 80 r1376 3feaec2
Encoding settings : cabac=1 / ref=5 / deblock=1:0:0 / analyse=0x3:0x133 / me=umh / subme=8 / psy=1 / psy_rd=1.0:0.0 / mixed_ref=1 / me_range=16 / chroma_me=1 / trellis=1 / 8x8dct=1 / cqm=0 / deadzone=21,11 / fast_pskip=0 / chroma_qp_offset=-2 / threads=6 / sliced_threads=0 / nr=0 / decimate=1 / mbaff=0 / constrained_intra=0 / bframes=3 / b_pyramid=0 / b_adapt=1 / b_bias=0 / direct=1 / wpredb=1 / wpredp=2 / keyint=250 / keyint_min=25 / scenecut=40 / rc_lookahead=40 / rc=2pass / mbtree=1 / bitrate=5057 / ratetol=1.0 / qcomp=0.60 / qpmin=10 / qpmax=51 / qpstep=4 / cplxblur=20.0 / qblur=0.5 / ip_ratio=1.40 / aq=1:1.00
Language : English
Default : Yes
Forced : No

Audio #1
ID : 2
Format : AC-3
Format/Info : Audio Coding 3
Mode extension : CM (complete main)
Format settings, Endianness : Big
Codec ID : A_AC3
Duration : 1h 49mn
Bit rate mode : Constant
Bit rate : 192 Kbps
Channel(s) : 2 channels
Channel positions : Front: L R
Sampling rate : 48.0 KHz
Bit depth : 16 bits
Compression mode : Lossy
Stream size : 151 MiB (3%)
Title : Russian 2.0 [Любительский, thx AJ Cole] 192 kbps
Language : Russian
Default : Yes
Forced : No

Audio #2
ID : 3
Format : AC-3
Format/Info : Audio Coding 3
Mode extension : CM (complete main)
Format settings, Endianness : Big
Codec ID : A_AC3
Duration : 1h 49mn
Bit rate mode : Constant
Bit rate : 640 Kbps
Channel(s) : 6 channels
Channel positions : Front: L C R, Side: L R, LFE
Sampling rate : 48.0 KHz
Bit depth : 16 bits
Compression mode : Lossy
Stream size : 502 MiB (11%)
Title : English 5.1 640 kbps
Language : English
Default : No
Forced : No

Text #1
ID : 4
Format : UTF-8
Codec ID : S_TEXT/UTF8
Codec ID/Info : UTF-8 Plain Text
Title : Russian (thx, feabue)
Language : Russian
Default : No
Forced : No

Text #2
ID : 5
Format : UTF-8
Codec ID : S_TEXT/UTF8
Codec ID/Info : UTF-8 Plain Text
Title : English
Language : English
Default : No
Forced : No



pic


Информация
Информация Скриншоты Пиры Скачавшие Список файлов
Залил Оценка Просмотров Скачан Файлов
АРХАНГЕЛ 0 347321

Теги
драма, спорт

Похожие раздачи

Поиск не дал результатов.Больше похожих раздач →

Список комментариев
Комментарии отсутствуют

Добавить комментарий
Внимание
Гости не могут оставлять комментарии, авторизуйтесь.

Панель навигации

ПОПУЛЯРНЫЕ РАЗДАЧИ
скачать торрент Ледокол (2016) WEB-DLRip | iTunesскачать торрент Доктор Стрэндж (2016) TS
скачать торрент Ледокол (2016) WEB-DL 1080p | iTunesскачать торрент Дуэлянт (2016) CAMRip
скачать торрент Отряд самоубийц (2016) BDRip 1080p | Расширeнная версия | iTunesскачать торрент Джейсон Борн (2016) HDTV 720p | Чистый звук
скачать торрент Первый мститель: Противостояние (2016) BDRip | IMAX Edition | iTunesскачать торрент Тарзан. Легенда (2016) HDRip | iTunes
скачать торрент Dark Souls 3: Deluxe Edition (2016) PC | RePack от xatabскачать торрент Люди Икс: Апокалипсис / X-Men: Apocalypse (2016) BDRip 720p | Лицензия

Будь с нами!


Наши друзья 



Информация, расположенная на данном сервере, предназначена исключительно для частного использования и не может быть загружена/перенесена на другой компьютер. Ни владелец сайта, ни хостинг-провайдер, ни любые другие физические или юридические лица не могут нести никакой отвественностиза любое использование материалов данного сайта.

© 2012-2016 TRACK.KG.