Загрузить Adobe Flash Player
Как тут качать? :: Как встать на раздачу?

Скачать / Download torrent  
Хэш: 3eee55ba33145d279b98b5c26e53d2df8024cfac
Добавлен: 22 мая 2015 в 15:59:15
Категория: Фильмы » Зарубежное кино » Ужасы
Размер: 1.64 GB
Проверил: АРХАНГЕЛ 22 мая 2015 в 15:59:15

Раздают: 144 Качают: 56

Институт Аттикус / The Atticus Institute (2015) HDRip-AVC | iTunes

pic

Название: Институт Аттикус
Оригинальное название: The Atticus Institute

Год выхода: 2015
Страна: США / Safran Company
Жанр: Ужасы, триллер, драма
Перевод: Дублированный iTunes

Режиссер: Крис Спарлинг
В ролях: Джулиан Акоста, Энн Бетанкур, Карлос Е. Кампос, Джейк Карпентер, Хит Сентаццо, Брайан Ченоуэт, Ханна Коули, Аарон Крэвен, Динарте де Фрейтас, Лэндалл Гулсби

О фильме: В 70-х годах доктором Генри Уэстом был создан институт Аттикус, в котором доктор Генри Уэст проводил над людьми с паранормальными способностями тесты. Доктор повидал самых различных людей с необычными способностями, но в скором времени у них оказалась Джудит Уистенд. Эта девушка показала самые невероятные способности, что привлекло внимание военных, решивших взять под собственный контроль Аттикус. При просмотре фильма ужасов 2015 - Институт Аттикус зрители увидят, что над Джудит проводилось множество экспериментов. После каждого сеанса ученые понимали, что в девушке заключена злая сила. Так они решают использовать девушку в военных целях. Но они не подумали о существовании силы, одолеть которую непосильно ни одному человеку.

pic pic pic


Качество: HDRip-AVC
Формат: MKV
Продолжительность: 01:22:49
Видео: AVC, 1024x560, 2000 Kbps
Звук: Русский (AC3, 6 ch, 384 Кбит/с), английский (AC3, 6 ch, 448 Кбит/с)
Субтитры: Английские

General
Unique ID : 254660414993357599534697890742296408262 (0xBF95CFD7EE0DC5B5AF1698C6BA9470C6)
Complete name : D:\ДИСК\01.ФИЛЬМЫ\Институт Аттикус The Atticus Institute (2015)\The Atticus Institute (2015) HDRip-AVC_ iTunes.mkv
Format : Matroska
Format version : Version 4 / Version 2
File size : 1.64 GiB
Duration : 1h 22mn
Overall bit rate : 2 833 Kbps
Encoded date : UTC 2015-05-22 03:03:59
Writing application : mkvmerge v7.7.0 ('Six Voices') 64bit built on Feb 28 2015 23:39:33
Writing library : libebml v1.3.1 + libmatroska v1.4.2
_STATISTICS_WRITING_APP : mkvmerge v7.7.0 ('Six Voices') 64bit built on Feb 28 2015 23:39:33
_STATISTICS_WRITING_DATE_UTC : 2015-05-22 03:03:59
_STATISTICS_TAGS : BPS DURATION NUMBER_OF_FRAMES NUMBER_OF_BYTES
DURATION : 01:19:07.909000000
NUMBER_OF_FRAMES : 1074
NUMBER_OF_BYTES : 37687

Video
ID : 1
Format : AVC
Format/Info : Advanced Video Codec
Format profile : High@L4.1
Format settings, CABAC : Yes
Format settings, ReFrames : 7 frames
Codec ID : V_MPEG4/ISO/AVC
Duration : 1h 22mn
Bit rate : 2 000 Kbps
Width : 1 024 pixels
Height : 560 pixels
Display aspect ratio : 1.85:1
Original display aspect ratio : 1.85:1
Frame rate mode : Constant
Frame rate : 23.976 fps
Color space : YUV
Chroma subsampling : 4:2:0
Bit depth : 8 bits
Scan type : Progressive
Bits/(Pixel*Frame) : 0.145
Stream size : 1.12 GiB (69%)
Writing library : x264 core 128 r2216M 198a7ea
Encoding settings : cabac=1 / ref=8 / deblock=1:-3:-3 / analyse=0x3:0x133 / me=umh / subme=8 / psy=1 / psy_rd=1.00:0.20 / mixed_ref=1 / me_range=24 / chroma_me=1 / trellis=2 / 8x8dct=1 / cqm=0 / deadzone=21,11 / fast_pskip=1 / chroma_qp_offset=-3 / threads=4 / lookahead_threads=1 / sliced_threads=0 / nr=0 / decimate=1 / interlaced=0 / bluray_compat=0 / constrained_intra=0 / bframes=8 / b_pyramid=1 / b_adapt=2 / b_bias=0 / direct=3 / weightb=1 / open_gop=0 / weightp=2 / keyint=230 / keyint_min=23 / scenecut=40 / intra_refresh=0 / rc_lookahead=40 / rc=2pass / mbtree=1 / bitrate=2000 / ratetol=1.0 / qcomp=0.60 / qpmin=0 / qpmax=69 / qpstep=8 / cplxblur=20.0 / qblur=0.5 / ip_ratio=1.40 / aq=1:1.00
Language : English
Default : Yes
Forced : No
DURATION : 01:22:48.881000000
NUMBER_OF_FRAMES : 119134
NUMBER_OF_BYTES : 1241659248
_STATISTICS_WRITING_APP : mkvmerge v7.7.0 ('Six Voices') 64bit built on Feb 28 2015 23:39:33
_STATISTICS_WRITING_DATE_UTC : 2015-05-22 03:03:59
_STATISTICS_TAGS : BPS DURATION NUMBER_OF_FRAMES NUMBER_OF_BYTES

Audio #1
ID : 2
Format : AC-3
Format/Info : Audio Coding 3
Mode extension : CM (complete main)
Format settings, Endianness : Big
Codec ID : A_AC3
Duration : 1h 22mn
Bit rate mode : Constant
Bit rate : 384 Kbps
Channel(s) : 6 channels
Channel positions : Front: L C R, Side: L R, LFE
Sampling rate : 48.0 KHz
Bit depth : 16 bits
Compression mode : Lossy
Delay relative to video : 27ms
Stream size : 227 MiB (14%)
Language : Russian
Default : Yes
Forced : No
DURATION : 01:22:48.992000000
NUMBER_OF_FRAMES : 155281
NUMBER_OF_BYTES : 238511616
_STATISTICS_WRITING_APP : mkvmerge v7.7.0 ('Six Voices') 64bit built on Feb 28 2015 23:39:33
_STATISTICS_WRITING_DATE_UTC : 2015-05-22 03:03:59
_STATISTICS_TAGS : BPS DURATION NUMBER_OF_FRAMES NUMBER_OF_BYTES

Audio #2
ID : 3
Format : AC-3
Format/Info : Audio Coding 3
Mode extension : CM (complete main)
Format settings, Endianness : Big
Codec ID : A_AC3
Duration : 1h 22mn
Bit rate mode : Constant
Bit rate : 448 Kbps
Channel(s) : 6 channels
Channel positions : Front: L C R, Side: L R, LFE
Sampling rate : 48.0 KHz
Bit depth : 16 bits
Compression mode : Lossy
Delay relative to video : 27ms
Stream size : 265 MiB (16%)
Language : English
Default : No
Forced : No
DURATION : 01:22:48.992000000
NUMBER_OF_FRAMES : 155281
NUMBER_OF_BYTES : 278263552
_STATISTICS_WRITING_APP : mkvmerge v7.7.0 ('Six Voices') 64bit built on Feb 28 2015 23:39:33
_STATISTICS_WRITING_DATE_UTC : 2015-05-22 03:03:59
_STATISTICS_TAGS : BPS DURATION NUMBER_OF_FRAMES NUMBER_OF_BYTES

Text
ID : 4
Format : UTF-8
Codec ID : S_TEXT/UTF8
Codec ID/Info : UTF-8 Plain Text
Language : English
Default : No
Forced : No

Menu
00:00:00.000 : en:00:00:00.000
00:03:02.349 : en:00:03:02.349
00:10:45.603 : en:00:10:45.603
00:19:56.404 : en:00:19:56.404
00:26:01.310 : en:00:26:01.310
00:34:06.670 : en:00:34:06.670
00:39:49.137 : en:00:39:49.137
00:49:38.225 : en:00:49:38.225
00:55:49.888 : en:00:55:49.888
01:02:28.161 : en:01:02:28.161
01:09:00.345 : en:01:09:00.345
01:19:37.356 : en:01:19:37.356



pic


Информация
Информация Скриншоты Пиры Скачавшие Список файлов
Залил Оценка Просмотров Скачан Файлов
АРХАНГЕЛ 0 466411

Теги
ужасы, триллер, драма

Похожие раздачи

Институт Аттикус / The Atticus Institute (2015) BDRip 1080p | Лицензия 5.85 GB

Институт Аттикус / The Atticus Institute (2015) HDRip | Лицензия 1.37 GB

Больше похожих раздач →

Список комментариев
Комментарии отсутствуют

Добавить комментарий
Внимание
Гости не могут оставлять комментарии, авторизуйтесь.

Панель навигации

ПОПУЛЯРНЫЕ РАЗДАЧИ
скачать торрент Ледокол (2016) WEB-DLRip | iTunesскачать торрент Доктор Стрэндж (2016) TS
скачать торрент Ледокол (2016) WEB-DL 1080p | iTunesскачать торрент Дуэлянт (2016) CAMRip
скачать торрент Отряд самоубийц (2016) BDRip 1080p | Расширeнная версия | iTunesскачать торрент Джейсон Борн (2016) HDTV 720p | Чистый звук
скачать торрент Первый мститель: Противостояние (2016) BDRip | IMAX Edition | iTunesскачать торрент Тарзан. Легенда (2016) HDRip | iTunes
скачать торрент Dark Souls 3: Deluxe Edition (2016) PC | RePack от xatabскачать торрент Люди Икс: Апокалипсис / X-Men: Apocalypse (2016) BDRip 720p | Лицензия

Будь с нами!


Наши друзья 



Информация, расположенная на данном сервере, предназначена исключительно для частного использования и не может быть загружена/перенесена на другой компьютер. Ни владелец сайта, ни хостинг-провайдер, ни любые другие физические или юридические лица не могут нести никакой отвественностиза любое использование материалов данного сайта.

© 2012-2016 TRACK.KG.